  0
SECTION
  2
HEADER
  9
$ACADVER
  1
AC1015
  9
$ACADMAINTVER
 70
     6
  9
$DWGCODEPAGE
  3
ANSI_1252
  9
$INSBASE
 10
0.0
 20
0.0
 30
0.0
  9
$EXTMIN
 10
804.5698245923899
 20
-606.089631968033
 30
0.0
  9
$EXTMAX
 10
1014.56982459239
 20
-309.0896319680329
 30
0.0
  9
$LIMMIN
 10
0.0
 20
0.0
  9
$LIMMAX
 10
12.0
 20
9.0
  9
$ORTHOMODE
 70
     0
  9
$REGENMODE
 70
     1
  9
$FILLMODE
 70
     1
  9
$QTEXTMODE
 70
     0
  9
$MIRRTEXT
 70
     1
  9
$LTSCALE
 40
1.0
  9
$ATTMODE
 70
     1
  9
$TEXTSIZE
 40
0.2
  9
$TRACEWID
 40
0.05
  9
$TEXTSTYLE
  7
Standard
  9
$CLAYER
  8
0
  9
$CELTYPE
  6
ByLayer
  9
$CECOLOR
 62
   256
  9
$CELTSCALE
 40
1.0
  9
$DISPSILH
 70
     0
  9
$DIMSCALE
 40
1.0
  9
$DIMASZ
 40
0.18
  9
$DIMEXO
 40
0.0625
  9
$DIMDLI
 40
0.38
  9
$DIMRND
 40
0.0
  9
$DIMDLE
 40
0.0
  9
$DIMEXE
 40
0.18
  9
$DIMTP
 40
0.0
  9
$DIMTM
 40
0.0
  9
$DIMTXT
 40
0.18
  9
$DIMCEN
 40
0.09
  9
$DIMTSZ
 40
0.0
  9
$DIMTOL
 70
     0
  9
$DIMLIM
 70
     0
  9
$DIMTIH
 70
     1
  9
$DIMTOH
 70
     1
  9
$DIMSE1
 70
     0
  9
$DIMSE2
 70
     0
  9
$DIMTAD
 70
     0
  9
$DIMZIN
 70
     0
  9
$DIMBLK
  1

  9
$DIMASO
 70
     1
  9
$DIMSHO
 70
     1
  9
$DIMPOST
  1

  9
$DIMAPOST
  1

  9
$DIMALT
 70
     0
  9
$DIMALTD
 70
     2
  9
$DIMALTF
 40
25.4
  9
$DIMLFAC
 40
1.0
  9
$DIMTOFL
 70
     0
  9
$DIMTVP
 40
0.0
  9
$DIMTIX
 70
     0
  9
$DIMSOXD
 70
     0
  9
$DIMSAH
 70
     0
  9
$DIMBLK1
  1

  9
$DIMBLK2
  1

  9
$DIMSTYLE
  2
Standard
  9
$DIMCLRD
 70
     0
  9
$DIMCLRE
 70
     0
  9
$DIMCLRT
 70
     0
  9
$DIMTFAC
 40
1.0
  9
$DIMGAP
 40
0.09
  9
$DIMJUST
 70
     0
  9
$DIMSD1
 70
     0
  9
$DIMSD2
 70
     0
  9
$DIMTOLJ
 70
     1
  9
$DIMTZIN
 70
     0
  9
$DIMALTZ
 70
     0
  9
$DIMALTTZ
 70
     0
  9
$DIMUPT
 70
     0
  9
$DIMDEC
 70
     4
  9
$DIMTDEC
 70
     4
  9
$DIMALTU
 70
     2
  9
$DIMALTTD
 70
     2
  9
$DIMTXSTY
  7
Standard
  9
$DIMAUNIT
 70
     0
  9
$DIMADEC
 70
     0
  9
$DIMALTRND
 40
0.0
  9
$DIMAZIN
 70
     0
  9
$DIMDSEP
 70
    46
  9
$DIMATFIT
 70
     3
  9
$DIMFRAC
 70
     0
  9
$DIMLDRBLK
  1

  9
$DIMLUNIT
 70
     2
  9
$DIMLWD
 70
    -2
  9
$DIMLWE
 70
    -2
  9
$DIMTMOVE
 70
     0
  9
$LUNITS
 70
     2
  9
$LUPREC
 70
     4
  9
$SKETCHINC
 40
0.1
  9
$FILLETRAD
 40
0.5
  9
$AUNITS
 70
     0
  9
$AUPREC
 70
     0
  9
$MENU
  1
.
  9
$ELEVATION
 40
0.0
  9
$PELEVATION
 40
0.0
  9
$THICKNESS
 40
0.0
  9
$LIMCHECK
 70
     0
  9
$CHAMFERA
 40
0.5
  9
$CHAMFERB
 40
0.5
  9
$CHAMFERC
 40
1.0
  9
$CHAMFERD
 40
0.0
  9
$SKPOLY
 70
     0
  9
$TDCREATE
 40
2456997.601122049
  9
$TDUCREATE
 40
2456997.559455382
  9
$TDUPDATE
 40
2456997.601122234
  9
$TDUUPDATE
 40
2456997.559455567
  9
$TDINDWG
 40
0.0000000116
  9
$TDUSRTIMER
 40
0.0000000116
  9
$USRTIMER
 70
     1
  9
$ANGBASE
 50
0.0
  9
$ANGDIR
 70
     0
  9
$PDMODE
 70
     0
  9
$PDSIZE
 40
0.0
  9
$PLINEWID
 40
0.0
  9
$SPLFRAME
 70
     0
  9
$SPLINETYPE
 70
     6
  9
$SPLINESEGS
 70
     8
  9
$HANDSEED
  5
319
  9
$SURFTAB1
 70
     6
  9
$SURFTAB2
 70
     6
  9
$SURFTYPE
 70
     6
  9
$SURFU
 70
     6
  9
$SURFV
 70
     6
  9
$UCSBASE
  2

  9
$UCSNAME
  2

  9
$UCSORG
 10
0.0
 20
0.0
 30
0.0
  9
$UCSXDIR
 10
1.0
 20
0.0
 30
0.0
  9
$UCSYDIR
 10
0.0
 20
1.0
 30
0.0
  9
$UCSORTHOREF
  2

  9
$UCSORTHOVIEW
 70
     0
  9
$UCSORGTOP
 10
0.0
 20
0.0
 30
0.0
  9
$UCSORGBOTTOM
 10
0.0
 20
0.0
 30
0.0
  9
$UCSORGLEFT
 10
0.0
 20
0.0
 30
0.0
  9
$UCSORGRIGHT
 10
0.0
 20
0.0
 30
0.0
  9
$UCSORGFRONT
 10
0.0
 20
0.0
 30
0.0
  9
$UCSORGBACK
 10
0.0
 20
0.0
 30
0.0
  9
$PUCSBASE
  2

  9
$PUCSNAME
  2

  9
$PUCSORG
 10
0.0
 20
0.0
 30
0.0
  9
$PUCSXDIR
 10
1.0
 20
0.0
 30
0.0
  9
$PUCSYDIR
 10
0.0
 20
1.0
 30
0.0
  9
$PUCSORTHOREF
  2

  9
$PUCSORTHOVIEW
 70
     0
  9
$PUCSORGTOP
 10
0.0
 20
0.0
 30
0.0
  9
$PUCSORGBOTTOM
 10
0.0
 20
0.0
 30
0.0
  9
$PUCSORGLEFT
 10
0.0
 20
0.0
 30
0.0
  9
$PUCSORGRIGHT
 10
0.0
 20
0.0
 30
0.0
  9
$PUCSORGFRONT
 10
0.0
 20
0.0
 30
0.0
  9
$PUCSORGBACK
 10
0.0
 20
0.0
 30
0.0
  9
$USERI1
 70
     0
  9
$USERI2
 70
     0
  9
$USERI3
 70
     0
  9
$USERI4
 70
     0
  9
$USERI5
 70
     0
  9
$USERR1
 40
18.1
  9
$USERR2
 40
0.0
  9
$USERR3
 40
0.0
  9
$USERR4
 40
0.0
  9
$USERR5
 40
0.0
  9
$WORLDVIEW
 70
     1
  9
$SHADEDGE
 70
     3
  9
$SHADEDIF
 70
    70
  9
$TILEMODE
 70
     1
  9
$MAXACTVP
 70
    64
  9
$PINSBASE
 10
0.0
 20
0.0
 30
0.0
  9
$PLIMCHECK
 70
     0
  9
$PEXTMIN
 10
1.00000000000000E+20
 20
1.00000000000000E+20
 30
1.00000000000000E+20
  9
$PEXTMAX
 10
-1.00000000000000E+20
 20
-1.00000000000000E+20
 30
-1.00000000000000E+20
  9
$PLIMMIN
 10
0.0
 20
0.0
  9
$PLIMMAX
 10
12.0
 20
9.0
  9
$UNITMODE
 70
     0
  9
$VISRETAIN
 70
     1
  9
$PLINEGEN
 70
     0
  9
$PSLTSCALE
 70
     1
  9
$TREEDEPTH
 70
  3020
  9
$CMLSTYLE
  2
Standard
  9
$CMLJUST
 70
     0
  9
$CMLSCALE
 40
1.0
  9
$PROXYGRAPHICS
 70
     1
  9
$MEASUREMENT
 70
     1
  9
$CELWEIGHT
370
    -1
  9
$ENDCAPS
280
     0
  9
$JOINSTYLE
280
     0
  9
$LWDISPLAY
290
     0
  9
$INSUNITS
 70
     4
  9
$HYPERLINKBASE
  1

  9
$STYLESHEET
  1

  9
$XEDIT
290
     1
  9
$CEPSNTYPE
380
     0
  9
$PSTYLEMODE
290
     1
  9
$FINGERPRINTGUID
  2
{71F1EE0A-31DD-4909-AAC2-FB4C873D7224}
  9
$VERSIONGUID
  2
{FAEB1C32-E019-11D5-929B-00C0DF256EC4}
  9
$EXTNAMES
290
     1
  9
$PSVPSCALE
 40
0.0
  9
$OLESTARTUP
290
     0
  0
ENDSEC
  0
SECTION
  2
CLASSES
  0
CLASS
  1
ACDBDICTIONARYWDFLT
  2
AcDbDictionaryWithDefault
  3
ObjectDBX Classes
 90
        0
280
     0
281
     0
  0
CLASS
  1
VISUALSTYLE
  2
AcDbVisualStyle
  3
ObjectDBX Classes
 90
     4095
280
     0
281
     0
  0
CLASS
  1
MATERIAL
  2
AcDbMaterial
  3
ObjectDBX Classes
 90
     1153
280
     0
281
     0
  0
CLASS
  1
DICTIONARYVAR
  2
AcDbDictionaryVar
  3
ObjectDBX Classes
 90
        0
280
     0
281
     0
  0
CLASS
  1
ACDBPLACEHOLDER
  2
AcDbPlaceHolder
  3
ObjectDBX Classes
 90
        0
280
     0
281
     0
  0
CLASS
  1
LAYOUT
  2
AcDbLayout
  3
ObjectDBX Classes
 90
        0
280
     0
281
     0
  0
ENDSEC
  0
SECTION
  2
TABLES
  0
TABLE
  2
VPORT
  5
8
330
0
100
AcDbSymbolTable
 70
     1
  0
VPORT
  5
29
330
8
100
AcDbSymbolTableRecord
100
AcDbViewportTableRecord
  2
*Active
 70
     0
 10
0.0
 20
0.0
 11
1.0
 21
1.0
 12
909.56982459239
 22
-457.589631968033
 13
0.0
 23
0.0
 14
0.5
 24
0.5
 15
0.5
 25
0.5
 16
0.0
 26
0.0
 36
1.0
 17
0.0
 27
0.0
 37
0.0
 40
326.7000000000002
 41
1.60267857142857
 42
50.0
 43
0.0
 44
0.0
 50
0.0
 51
0.0
 71
     0
 72
   100
 73
     1
 74
     3
 75
     0
 76
     0
 77
     0
 78
     0
281
     0
 65
     1
110
0.0
120
0.0
130
0.0
111
1.0
121
0.0
131
0.0
112
0.0
122
1.0
132
0.0
 79
     0
146
0.0
  0
ENDTAB
  0
TABLE
  2
LTYPE
  5
5
330
0
100
AcDbSymbolTable
 70
     8
  0
LTYPE
  5
14
330
5
100
AcDbSymbolTableRecord
100
AcDbLinetypeTableRecord
  2
ByBlock
 70
     0
  3

 72
    65
 73
     0
 40
0.0
  0
LTYPE
  5
15
330
5
100
AcDbSymbolTableRecord
100
AcDbLinetypeTableRecord
  2
ByLayer
 70
     0
  3

 72
    65
 73
     0
 40
0.0
  0
LTYPE
  5
16
330
5
100
AcDbSymbolTableRecord
100
AcDbLinetypeTableRecord
  2
Continuous
 70
     0
  3
Solid line
 72
    65
 73
     0
 40
0.0
  0
LTYPE
  5
3F
330
5
100
AcDbSymbolTableRecord
100
AcDbLinetypeTableRecord
  2
DASHED
 70
     0
  3
Dashed
 72
    65
 73
     2
 40
15.0
 49
7.0
 74
     0
 49
-8.0
 74
     0
  0
LTYPE
  5
40
330
5
100
AcDbSymbolTableRecord
100
AcDbLinetypeTableRecord
  2
DOTTED
 70
     0
  3
Dotted
 72
    65
 73
     2
 40
1.0
 49
0.0
 74
     0
 49
-1.0
 74
     0
  0
LTYPE
  5
41
330
5
100
AcDbSymbolTableRecord
100
AcDbLinetypeTableRecord
  2
DOT_CENTER
 70
     0
  3
Dot_Center
 72
    65
 73
     4
 40
14.0
 49
12.0
 74
     0
 49
-1.0
 74
     0
 49
0.0
 74
     0
 49
-1.0
 74
     0
  0
LTYPE
  5
42
330
5
100
AcDbSymbolTableRecord
100
AcDbLinetypeTableRecord
  2
LONG_DASHED
 70
     0
  3
Long_Dashed
 72
    65
 73
     2
 40
15.0
 49
10.0
 74
     0
 49
-5.0
 74
     0
  0
LTYPE
  5
43
330
5
100
AcDbSymbolTableRecord
100
AcDbLinetypeTableRecord
  2
DASH_CENTER
 70
     0
  3
Dash_Center
 72
    65
 73
     4
 40
14.0
 49
11.0
 74
     0
 49
-1.0
 74
     0
 49
1.0
 74
     0
 49
-1.0
 74
     0
  0
LTYPE
  5
44
330
5
100
AcDbSymbolTableRecord
100
AcDbLinetypeTableRecord
  2
PHANTOM
 70
     0
  3
Phantom
 72
    65
 73
     6
 40
13.0
 49
10.0
 74
     0
 49
-1.0
 74
     0
 49
0.0
 74
     0
 49
-1.0
 74
     0
 49
0.0
 74
     0
 49
-1.0
 74
     0
  0
LTYPE
  5
45
330
5
100
AcDbSymbolTableRecord
100
AcDbLinetypeTableRecord
  2
CENTER_DASH_DASH
 70
     0
  3
Center_Dash_Dash
 72
    65
 73
     6
 40
14.0
 49
9.0
 74
     0
 49
-1.0
 74
     0
 49
1.0
 74
     0
 49
-1.0
 74
     0
 49
1.0
 74
     0
 49
-1.0
 74
     0
  0
ENDTAB
  0
TABLE
  2
LAYER
  5
2
330
0
100
AcDbSymbolTable
 70
     2
  0
LAYER
  5
10
330
2
100
AcDbSymbolTableRecord
100
AcDbLayerTableRecord
  2
0
 70
     0
 62
     7
  6
Continuous
370
    -3
390
F
  0
LAYER
  5
46
330
2
100
AcDbSymbolTableRecord
100
AcDbLayerTableRecord
  2
1
 70
     0
 62
     7
  6
Continuous
370
    -3
390
F
  0
ENDTAB
  0
TABLE
  2
STYLE
  5
3
330
0
100
AcDbSymbolTable
 70
     3
  0
STYLE
  5
11
330
3
100
AcDbSymbolTableRecord
100
AcDbTextStyleTableRecord
  2
Standard
 70
     0
 40
0.0
 41
1.0
 50
0.0
 71
     0
 42
0.2
  3
txt
  4

  0
STYLE
  5
298
330
3
100
AcDbSymbolTableRecord
100
AcDbTextStyleTableRecord
  2
CONVERTER_11
 70
     0
 40
0.0
 41
1.2
 50
0.0
 71
     0
 42
0.2
  3
ARIAL.TTF
  4

  0
STYLE
  5
2A7
330
3
100
AcDbSymbolTableRecord
100
AcDbTextStyleTableRecord
  2
CONVERTER_12
 70
     0
 40
0.0
 41
0.95
 50
0.0
 71
     0
 42
0.2
  3
simplex.shx
  4

  0
ENDTAB
  0
TABLE
  2
VIEW
  5
6
330
0
100
AcDbSymbolTable
 70
     0
  0
ENDTAB
  0
TABLE
  2
UCS
  5
7
330
0
100
AcDbSymbolTable
 70
     0
  0
ENDTAB
  0
TABLE
  2
APPID
  5
9
330
0
100
AcDbSymbolTable
 70
     1
  0
APPID
  5
12
330
9
100
AcDbSymbolTableRecord
100
AcDbRegAppTableRecord
  2
ACAD
 70
     0
  0
ENDTAB
  0
TABLE
  2
DIMSTYLE
  5
A
330
0
100
AcDbSymbolTable
 70
     7
100
AcDbDimStyleTable
  0
DIMSTYLE
105
27
330
A
100
AcDbSymbolTableRecord
100
AcDbDimStyleTableRecord
  2
Standard
 70
     0
178
     0
340
11
  0
DIMSTYLE
105
2AB
102
{ACAD_REACTORS
330
2AC
102
}
330
A
100
AcDbSymbolTableRecord
100
AcDbDimStyleTableRecord
  2
ME10_DIM_10
 70
     0
 41
3.0
 42
0.5
 44
1.0
 73
     0
 74
     0
 77
     1
 78
     8
140
3.0
147
2.0
172
     1
173
     1
174
     1
175
     1
176
     2
177
     2
271
     2
178
     4
271
     2
340
2A7
  0
DIMSTYLE
105
2B7
102
{ACAD_REACTORS
330
2B8
102
}
330
A
100
AcDbSymbolTableRecord
100
AcDbDimStyleTableRecord
  2
ME10_DIM_11
 70
     0
 41
3.0
 42
0.5
 44
1.0
 73
     0
 74
     0
 77
     1
 78
     8
140
3.0
147
2.0
172
     1
173
     1
174
     1
175
     1
176
     2
177
     2
271
     2
178
     4
271
     2
340
2A7
  0
DIMSTYLE
105
2C2
102
{ACAD_REACTORS
330
2C3
102
}
330
A
100
AcDbSymbolTableRecord
100
AcDbDimStyleTableRecord
  2
ME10_DIM_12
 70
     0
 41
3.0
 42
0.5
 44
1.0
 73
     0
 74
     0
 77
     1
 78
     8
140
3.0
147
2.0
172
     1
173
     1
174
     1
175
     1
176
     2
177
     2
271
     2
178
     4
271
     2
340
2A7
  0
DIMSTYLE
105
2CD
102
{ACAD_REACTORS
330
2CE
102
}
330
A
100
AcDbSymbolTableRecord
100
AcDbDimStyleTableRecord
  2
ME10_DIM_13
 70
     0
 41
3.0
 42
0.5
 44
1.0
 73
     0
 74
     0
 77
     1
 78
     8
140
3.0
147
2.0
172
     1
173
     1
174
     1
175
     1
176
     2
177
     2
271
     2
178
     4
271
     2
340
2A7
  0
DIMSTYLE
105
2D8
102
{ACAD_REACTORS
330
2D9
102
}
330
A
100
AcDbSymbolTableRecord
100
AcDbDimStyleTableRecord
  2
ME10_DIM_14
 70
     0
 41
3.0
 42
0.5
 44
1.0
 73
     0
 74
     0
 77
     1
 78
     8
140
3.0
147
2.0
172
     1
173
     1
174
     1
175
     1
176
     2
177
     2
271
     2
178
     4
271
     2
340
2A7
  0
DIMSTYLE
105
2E3
102
{ACAD_REACTORS
330
2E4
102
}
330
A
100
AcDbSymbolTableRecord
100
AcDbDimStyleTableRecord
  2
ME10_DIM_15
 70
     0
 41
3.0
 42
0.5
 44
1.0
 73
     0
 74
     0
 77
     1
 78
     8
140
3.0
147
2.0
172
     1
173
     1
174
     1
175
     1
176
     2
177
     2
271
     2
178
     4
271
     2
340
2A7
  0
ENDTAB
  0
TABLE
  2
BLOCK_RECORD
  5
1
330
0
100
AcDbSymbolTable
 70
     7
  0
BLOCK_RECORD
  5
1F
330
1
100
AcDbSymbolTableRecord
100
AcDbBlockTableRecord
  2
*Model_Space
340
22
  0
BLOCK_RECORD
  5
1B
330
1
100
AcDbSymbolTableRecord
100
AcDbBlockTableRecord
  2
*Paper_Space
340
1E
  0
BLOCK_RECORD
  5
23
330
1
100
AcDbSymbolTableRecord
100
AcDbBlockTableRecord
  2
*Paper_Space0
340
26
  0
BLOCK_RECORD
  5
2A1
330
1
100
AcDbSymbolTableRecord
100
AcDbBlockTableRecord
  2
*D1
340
0
  0
BLOCK_RECORD
  5
2AD
330
1
100
AcDbSymbolTableRecord
100
AcDbBlockTableRecord
  2
*D2
340
0
  0
BLOCK_RECORD
  5
2B9
330
1
100
AcDbSymbolTableRecord
100
AcDbBlockTableRecord
  2
*D3
340
0
  0
BLOCK_RECORD
  5
2C4
330
1
100
AcDbSymbolTableRecord
100
AcDbBlockTableRecord
  2
*D4
340
0
  0
BLOCK_RECORD
  5
2CF
330
1
100
AcDbSymbolTableRecord
100
AcDbBlockTableRecord
  2
*D5
340
0
  0
BLOCK_RECORD
  5
2DA
330
1
100
AcDbSymbolTableRecord
100
AcDbBlockTableRecord
  2
*D6
340
0
  0
ENDTAB
  0
ENDSEC
  0
SECTION
  2
BLOCKS
  0
BLOCK
  5
20
330
1F
100
AcDbEntity
  8
0
100
AcDbBlockBegin
  2
*Model_Space
 70
     0
 10
0.0
 20
0.0
 30
0.0
  3
*Model_Space
  1

  0
ENDBLK
  5
21
330
1F
100
AcDbEntity
  8
0
100
AcDbBlockEnd
  0
BLOCK
  5
1C
330
1B
100
AcDbEntity
 67
     1
  8
0
100
AcDbBlockBegin
  2
*Paper_Space
 70
     0
 10
0.0
 20
0.0
 30
0.0
  3
*Paper_Space
  1

  0
ENDBLK
  5
1D
330
1B
100
AcDbEntity
 67
     1
  8
0
100
AcDbBlockEnd
  0
BLOCK
  5
24
330
23
100
AcDbEntity
  8
0
100
AcDbBlockBegin
  2
*Paper_Space0
 70
     0
 10
0.0
 20
0.0
 30
0.0
  3
*Paper_Space0
  1

  0
ENDBLK
  5
25
330
23
100
AcDbEntity
  8
0
100
AcDbBlockEnd
  0
BLOCK
  5
2A9
330
2A1
100
AcDbEntity
  8
0
100
AcDbBlockBegin
  2
*D1
 70
     1
 10
0.0
 20
0.0
 30
0.0
  3
*D1
  1

  0
LINE
  5
2A2
330
2A1
100
AcDbEntity
  8
1
  6
Continuous
 62
     2
100
AcDbLine
 10
995.037591853183
 20
-399.1973863155125
 30
0.0
 11
995.037591853183
 21
-384.1973863155125
 31
0.0
  0
LINE
  5
2A3
330
2A1
100
AcDbEntity
  8
1
  6
Continuous
 62
     2
100
AcDbLine
 10
973.3933175807889
 20
-399.1973863155125
 30
0.0
 11
996.037591853183
 21
-399.1973863155125
 31
0.0
  0
LINE
  5
2A4
330
2A1
100
AcDbEntity
  8
1
  6
Continuous
 62
     2
100
AcDbLine
 10
974.3395699333091
 20
-384.1973863155125
 30
0.0
 11
996.037591853183
 21
-384.1973863155125
 31
0.0
  0
SOLID
  5
2A5
330
2A1
100
AcDbEntity
  8
1
 62
     2
100
AcDbTrace
 10
994.6426343604209
 20
-396.1973863155125
 30
0.0
 11
995.4325493459452
 21
-396.1973863155125
 31
0.0
 12
995.037591853183
 22
-399.1973863155125
 32
0.0
 13
995.037591853183
 23
-399.1973863155125
 33
0.0
  0
SOLID
  5
2A6
330
2A1
100
AcDbEntity
  8
1
 62
     2
100
AcDbTrace
 10
995.4325493459452
 20
-387.1973863155125
 30
0.0
 11
994.6426343604209
 21
-387.1973863155125
 31
0.0
 12
995.037591853183
 22
-384.1973863155125
 32
0.0
 13
995.037591853183
 23
-384.1973863155125
 33
0.0
  0
MTEXT
  5
2A8
330
2A1
100
AcDbEntity
  8
1
 62
     4
100
AcDbMText
 10
993.037591853183
 20
-393.4973863155125
 30
0.0
 40
3.0
 41
0.0
 71
     7
 72
     1
  1
15
  7
CONVERTER_12
 11
0.0
 21
1.0
 31
0.0
 73
     1
 44
0.60024009603842
  0
ENDBLK
  5
2AA
330
2A1
100
AcDbEntity
  8
0
100
AcDbBlockEnd
  0
BLOCK
  5
2B5
330
2AD
100
AcDbEntity
  8
0
100
AcDbBlockBegin
  2
*D2
 70
     1
 10
0.0
 20
0.0
 30
0.0
  3
*D2
  1

  0
LINE
  5
2AE
330
2AD
100
AcDbEntity
  8
1
  6
Continuous
 62
     2
100
AcDbLine
 10
995.037591853183
 20
-399.1973863155126
 30
0.0
 11
995.037591853183
 21
-453.1973863155125
 31
0.0
  0
LINE
  5
2AF
330
2AD
100
AcDbEntity
  8
1
  6
Continuous
 62
     2
100
AcDbLine
 10
974.7395699333091
 20
-399.1973863155126
 30
0.0
 11
996.037591853183
 21
-399.1973863155126
 31
0.0
  0
LINE
  5
2B0
330
2AD
100
AcDbEntity
  8
1
  6
Continuous
 62
     2
100
AcDbLine
 10
978.61369832937
 20
-453.1973863155125
 30
0.0
 11
996.037591853183
 21
-453.1973863155125
 31
0.0
  0
LINE
  5
2B1
330
2AD
100
AcDbEntity
  8
1
  6
Continuous
 62
     2
100
AcDbLine
 10
974.4895699333091
 20
-453.1973863155125
 30
0.0
 11
976.030750350099
 21
-453.1973863155125
 31
0.0
  0
SOLID
  5
2B2
330
2AD
100
AcDbEntity
  8
1
 62
     2
100
AcDbTrace
 10
995.4325493459452
 20
-402.1973863155126
 30
0.0
 11
994.6426343604209
 21
-402.1973863155126
 31
0.0
 12
995.037591853183
 22
-399.1973863155126
 32
0.0
 13
995.037591853183
 23
-399.1973863155126
 33
0.0
  0
SOLID
  5
2B3
330
2AD
100
AcDbEntity
  8
1
 62
     2
100
AcDbTrace
 10
994.6426343604209
 20
-450.1973863155125
 30
0.0
 11
995.4325493459452
 21
-450.1973863155125
 31
0.0
 12
995.037591853183
 22
-453.1973863155125
 32
0.0
 13
995.037591853183
 23
-453.1973863155125
 33
0.0
  0
MTEXT
  5
2B4
330
2AD
100
AcDbEntity
  8
1
 62
     4
100
AcDbMText
 10
993.037591853183
 20
-428.4473863155125
 30
0.0
 40
3.0
 41
0.0
 71
     7
 72
     1
  1
54
  7
CONVERTER_12
 11
0.0
 21
1.0
 31
0.0
 73
     1
 44
0.60024009603842
  0
ENDBLK
  5
2B6
330
2AD
100
AcDbEntity
  8
0
100
AcDbBlockEnd
  0
BLOCK
  5
2C0
330
2B9
100
AcDbEntity
  8
0
100
AcDbBlockBegin
  2
*D3
 70
     1
 10
0.0
 20
0.0
 30
0.0
  3
*D3
  1

  0
LINE
  5
2BA
330
2B9
100
AcDbEntity
  8
1
  6
Continuous
 62
     2
100
AcDbLine
 10
945.4895699333091
 20
-473.014398834378
 30
0.0
 11
973.9895699333091
 21
-473.014398834378
 31
0.0
  0
LINE
  5
2BB
330
2B9
100
AcDbEntity
  8
1
  6
Continuous
 62
     2
100
AcDbLine
 10
945.4895699333091
 20
-453.6973863155124
 30
0.0
 11
945.4895699333091
 21
-474.014398834378
 31
0.0
  0
LINE
  5
2BC
330
2B9
100
AcDbEntity
  8
1
  6
Continuous
 62
     2
100
AcDbLine
 10
973.9895699333091
 20
-453.6973863155124
 30
0.0
 11
973.9895699333091
 21
-474.014398834378
 31
0.0
  0
SOLID
  5
2BD
330
2B9
100
AcDbEntity
  8
1
 62
     2
100
AcDbTrace
 10
948.4895699333091
 20
-472.6194413416158
 30
0.0
 11
948.4895699333091
 21
-473.4093563271401
 31
0.0
 12
945.4895699333091
 22
-473.014398834378
 32
0.0
 13
945.4895699333091
 23
-473.014398834378
 33
0.0
  0
SOLID
  5
2BE
330
2B9
100
AcDbEntity
  8
1
 62
     2
100
AcDbTrace
 10
970.9895699333091
 20
-473.4093563271401
 30
0.0
 11
970.9895699333091
 21
-472.6194413416158
 31
0.0
 12
973.9895699333091
 22
-473.014398834378
 32
0.0
 13
973.9895699333091
 23
-473.014398834378
 33
0.0
  0
MTEXT
  5
2BF
330
2B9
100
AcDbEntity
  8
1
 62
     4
100
AcDbMText
 10
955.4645699333091
 20
-470.714398834378
 30
0.0
 40
3.0
 41
0.0
 71
     7
 72
     1
  1
28,5
  7
CONVERTER_12
 11
0.9999999999970619
 21
2.424068405545306E-6
 31
0.0
 73
     1
 44
0.60024009603842
  0
ENDBLK
  5
2C1
330
2B9
100
AcDbEntity
  8
0
100
AcDbBlockEnd
  0
BLOCK
  5
2CB
330
2C4
100
AcDbEntity
  8
0
100
AcDbBlockBegin
  2
*D4
 70
     1
 10
0.0
 20
0.0
 30
0.0
  3
*D4
  1

  0
LINE
  5
2C5
330
2C4
100
AcDbEntity
  8
1
  6
Continuous
 62
     2
100
AcDbLine
 10
942.339569933309
 20
-488.095425634519
 30
0.0
 11
977.139569933309
 21
-488.095425634519
 31
0.0
  0
LINE
  5
2C6
330
2C4
100
AcDbEntity
  8
1
  6
Continuous
 62
     2
100
AcDbLine
 10
942.339569933309
 20
-445.1973863155125
 30
0.0
 11
942.339569933309
 21
-489.095425634519
 31
0.0
  0
LINE
  5
2C7
330
2C4
100
AcDbEntity
  8
1
  6
Continuous
 62
     2
100
AcDbLine
 10
977.139569933309
 20
-445.1973863155125
 30
0.0
 11
977.139569933309
 21
-489.095425634519
 31
0.0
  0
SOLID
  5
2C8
330
2C4
100
AcDbEntity
  8
1
 62
     2
100
AcDbTrace
 10
945.339569933309
 20
-487.7004681417569
 30
0.0
 11
945.339569933309
 21
-488.4903831272812
 31
0.0
 12
942.339569933309
 22
-488.095425634519
 32
0.0
 13
942.339569933309
 23
-488.095425634519
 33
0.0
  0
SOLID
  5
2C9
330
2C4
100
AcDbEntity
  8
1
 62
     2
100
AcDbTrace
 10
974.139569933309
 20
-488.4903831272812
 30
0.0
 11
974.139569933309
 21
-487.7004681417569
 31
0.0
 12
977.139569933309
 22
-488.095425634519
 32
0.0
 13
977.139569933309
 23
-488.095425634519
 33
0.0
  0
MTEXT
  5
2CA
330
2C4
100
AcDbEntity
  8
1
 62
     4
100
AcDbMText
 10
957.489569933309
 20
-486.095425634519
 30
0.0
 40
3.0
 41
0.0
 71
     7
 72
     1
  1
35
  7
CONVERTER_12
 11
0.9999999999970619
 21
2.424068405545306E-6
 31
0.0
 73
     1
 44
0.60024009603842
  0
ENDBLK
  5
2CC
330
2C4
100
AcDbEntity
  8
0
100
AcDbBlockEnd
  0
BLOCK
  5
2D6
330
2CF
100
AcDbEntity
  8
0
100
AcDbBlockBegin
  2
*D5
 70
     1
 10
0.0
 20
0.0
 30
0.0
  3
*D5
  1

  0
LINE
  5
2D0
330
2CF
100
AcDbEntity
  8
1
  6
Continuous
 62
     2
100
AcDbLine
 10
853.839569933309
 20
-472.864398834378
 30
0.0
 11
901.839569933309
 21
-472.864398834378
 31
0.0
  0
LINE
  5
2D1
330
2CF
100
AcDbEntity
  8
1
  6
Continuous
 62
     2
100
AcDbLine
 10
853.839569933309
 20
-453.6973863155124
 30
0.0
 11
853.839569933309
 21
-473.864398834378
 31
0.0
  0
LINE
  5
2D2
330
2CF
100
AcDbEntity
  8
1
  6
Continuous
 62
     2
100
AcDbLine
 10
901.839569933309
 20
-453.6973863155124
 30
0.0
 11
901.839569933309
 21
-473.864398834378
 31
0.0
  0
SOLID
  5
2D3
330
2CF
100
AcDbEntity
  8
1
 62
     2
100
AcDbTrace
 10
856.839569933309
 20
-472.4694413416158
 30
0.0
 11
856.839569933309
 21
-473.2593563271402
 31
0.0
 12
853.839569933309
 22
-472.864398834378
 32
0.0
 13
853.839569933309
 23
-472.864398834378
 33
0.0
  0
SOLID
  5
2D4
330
2CF
100
AcDbEntity
  8
1
 62
     2
100
AcDbTrace
 10
898.839569933309
 20
-473.2593563271402
 30
0.0
 11
898.839569933309
 21
-472.4694413416158
 31
0.0
 12
901.839569933309
 22
-472.864398834378
 32
0.0
 13
901.839569933309
 23
-472.864398834378
 33
0.0
  0
MTEXT
  5
2D5
330
2CF
100
AcDbEntity
  8
1
 62
     4
100
AcDbMText
 10
875.589569933309
 20
-470.864398834378
 30
0.0
 40
3.0
 41
0.0
 71
     7
 72
     1
  1
48
  7
CONVERTER_12
 11
0.9999999999970619
 21
2.424068405545306E-6
 31
0.0
 73
     1
 44
0.60024009603842
  0
ENDBLK
  5
2D7
330
2CF
100
AcDbEntity
  8
0
100
AcDbBlockEnd
  0
BLOCK
  5
2E1
330
2DA
100
AcDbEntity
  8
0
100
AcDbBlockBegin
  2
*D6
 70
     1
 10
0.0
 20
0.0
 30
0.0
  3
*D6
  1

  0
LINE
  5
2DB
330
2DA
100
AcDbEntity
  8
1
  6
Continuous
 62
     2
100
AcDbLine
 10
945.6395699333088
 20
-364.280054485191
 30
0.0
 11
973.8395699333091
 21
-364.280054485191
 31
0.0
  0
LINE
  5
2DC
330
2DA
100
AcDbEntity
  8
1
  6
Continuous
 62
     2
100
AcDbLine
 10
945.6395699333088
 20
-383.6973863155125
 30
0.0
 11
945.6395699333088
 21
-363.280054485191
 31
0.0
  0
LINE
  5
2DD
330
2DA
100
AcDbEntity
  8
1
  6
Continuous
 62
     2
100
AcDbLine
 10
973.8395699333091
 20
-383.6973863155125
 30
0.0
 11
973.8395699333091
 21
-363.280054485191
 31
0.0
  0
SOLID
  5
2DE
330
2DA
100
AcDbEntity
  8
1
 62
     2
100
AcDbTrace
 10
948.6395699333088
 20
-363.8850969924288
 30
0.0
 11
948.6395699333088
 21
-364.6750119779531
 31
0.0
 12
945.6395699333088
 22
-364.280054485191
 32
0.0
 13
945.6395699333088
 23
-364.280054485191
 33
0.0
  0
SOLID
  5
2DF
330
2DA
100
AcDbEntity
  8
1
 62
     2
100
AcDbTrace
 10
970.8395699333091
 20
-364.6750119779531
 30
0.0
 11
970.8395699333091
 21
-363.8850969924288
 31
0.0
 12
973.8395699333091
 22
-364.280054485191
 32
0.0
 13
973.8395699333091
 23
-364.280054485191
 33
0.0
  0
MTEXT
  5
2E0
330
2DA
100
AcDbEntity
  8
1
 62
     4
100
AcDbMText
 10
954.189569933309
 20
-361.380054485191
 30
0.0
 40
3.0
 41
0.0
 71
     7
 72
     1
  1
Pg 21
  7
CONVERTER_12
 11
0.9999999999970619
 21
2.424068405545306E-6
 31
0.0
 73
     1
 44
0.60024009603842
  0
ENDBLK
  5
2E2
330
2DA
100
AcDbEntity
  8
0
100
AcDbBlockEnd
  0
ENDSEC
  0
SECTION
  2
ENTITIES
  0
LINE
  5
47
330
1F
100
AcDbEntity
  8
1
  6
Continuous
 62
     7
100
AcDbLine
 10
945.6395699333088
 20
-384.1973863155125
 30
0.0
 11
973.8395699333091
 21
-384.1973863155125
 31
0.0
  0
LINE
  5
48
330
1F
100
AcDbEntity
  8
1
  6
Continuous
 62
     7
100
AcDbLine
 10
863.7427864852798
 20
-384.1973863155125
 30
0.0
 11
891.9363533813371
 21
-384.1973863155125
 31
0.0
  0
LINE
  5
49
330
1F
100
AcDbEntity
  8
0
  6
Continuous
 62
     2
100
AcDbLine
 10
966.714569933309
 20
-433.9973863155125
 30
0.0
 11
966.714569933309
 21
-425.1973863155124
 31
0.0
  0
LINE
  5
4A
330
1F
100
AcDbEntity
  8
0
  6
Continuous
 62
     2
100
AcDbLine
 10
952.764569933309
 20
-433.9973863155125
 30
0.0
 11
952.764569933309
 21
-425.1973863155124
 31
0.0
  0
LINE
  5
4B
330
1F
100
AcDbEntity
  8
0
  6
Continuous
 62
     2
100
AcDbLine
 10
966.714569933309
 20
-441.1973863155125
 30
0.0
 11
966.714569933309
 21
-448.1973863155124
 31
0.0
  0
LINE
  5
4C
330
1F
100
AcDbEntity
  8
0
  6
Continuous
 62
     7
100
AcDbLine
 10
966.714569933309
 20
-448.1973863155124
 30
0.0
 11
966.589569933309
 21
-448.1973863155124
 31
0.0
  0
LINE
  5
4D
330
1F
100
AcDbEntity
  8
0
  6
Continuous
 62
     2
100
AcDbLine
 10
952.764569933309
 20
-441.1973863155125
 30
0.0
 11
952.764569933309
 21
-448.1973863155124
 31
0.0
  0
LINE
  5
4E
330
1F
100
AcDbEntity
  8
0
  6
Continuous
 62
     7
100
AcDbLine
 10
952.764569933309
 20
-448.1973863155124
 30
0.0
 11
945.4895699333091
 21
-448.1973863155124
 31
0.0
  0
LINE
  5
4F
330
1F
100
AcDbEntity
  8
0
  6
Continuous
 62
     2
100
AcDbLine
 10
952.889569933309
 20
-453.1973863155124
 30
0.0
 11
952.889569933309
 21
-448.1973863155124
 31
0.0
  0
LINE
  5
50
330
1F
100
AcDbEntity
  8
0
  6
Continuous
 62
     2
100
AcDbLine
 10
966.589569933309
 20
-453.1973863155124
 30
0.0
 11
966.589569933309
 21
-448.1973863155124
 31
0.0
  0
LINE
  5
51
330
1F
100
AcDbEntity
  8
0
  6
Continuous
 62
     2
100
AcDbLine
 10
966.714569933309
 20
-434.5306289981253
 30
0.0
 11
966.714569933309
 21
-435.2641436328997
 31
0.0
  0
LINE
  5
52
330
1F
100
AcDbEntity
  8
0
  6
Continuous
 62
     2
100
AcDbLine
 10
966.714569933309
 20
-433.9973863155125
 30
0.0
 11
966.714569933309
 21
-434.3641436328996
 31
0.0
  0
LINE
  5
53
330
1F
100
AcDbEntity
  8
0
  6
Continuous
 62
     2
100
AcDbLine
 10
966.714569933309
 20
-436.1641436328997
 30
0.0
 11
966.714569933309
 21
-435.4306289981252
 31
0.0
  0
LINE
  5
54
330
1F
100
AcDbEntity
  8
0
  6
Continuous
 62
     2
100
AcDbLine
 10
966.714569933309
 20
-434.5306289981253
 30
0.0
 11
966.714569933309
 21
-434.3641436328996
 31
0.0
  0
LINE
  5
55
330
1F
100
AcDbEntity
  8
0
  6
Continuous
 62
     2
100
AcDbLine
 10
966.714569933309
 20
-435.2641436328997
 30
0.0
 11
966.714569933309
 21
-435.4306289981252
 31
0.0
  0
LINE
  5
56
330
1F
100
AcDbEntity
  8
0
  6
Continuous
 62
     2
100
AcDbLine
 10
966.714569933309
 20
-436.3306289981253
 30
0.0
 11
966.714569933309
 21
-436.1641436328997
 31
0.0
  0
LINE
  5
57
330
1F
100
AcDbEntity
  8
0
  6
Continuous
 62
     2
100
AcDbLine
 10
966.714569933309
 20
-436.3306289981253
 30
0.0
 11
966.714569933309
 21
-437.0641436328996
 31
0.0
  0
LINE
  5
58
330
1F
100
AcDbEntity
  8
0
  6
Continuous
 62
     2
100
AcDbLine
 10
966.714569933309
 20
-437.9641436328997
 30
0.0
 11
966.714569933309
 21
-437.2306289981253
 31
0.0
  0
LINE
  5
59
330
1F
100
AcDbEntity
  8
0
  6
Continuous
 62
     2
100
AcDbLine
 10
966.714569933309
 20
-439.9306289981252
 30
0.0
 11
966.714569933309
 21
-439.7641436328997
 31
0.0
  0
LINE
  5
5A
330
1F
100
AcDbEntity
  8
0
  6
Continuous
 62
     2
100
AcDbLine
 10
966.714569933309
 20
-439.7641436328997
 30
0.0
 11
966.714569933309
 21
-439.0306289981253
 31
0.0
  0
LINE
  5
5B
330
1F
100
AcDbEntity
  8
0
  6
Continuous
 62
     2
100
AcDbLine
 10
966.714569933309
 20
-440.6641436328997
 30
0.0
 11
966.714569933309
 21
-440.8306289981253
 31
0.0
  0
LINE
  5
5C
330
1F
100
AcDbEntity
  8
0
  6
Continuous
 62
     2
100
AcDbLine
 10
966.714569933309
 20
-440.6641436328997
 30
0.0
 11
966.714569933309
 21
-439.9306289981252
 31
0.0
  0
LINE
  5
5D
330
1F
100
AcDbEntity
  8
0
  6
Continuous
 62
     2
100
AcDbLine
 10
966.714569933309
 20
-440.8306289981253
 30
0.0
 11
966.714569933309
 21
-441.1973863155125
 31
0.0
  0
LINE
  5
5E
330
1F
100
AcDbEntity
  8
0
  6
Continuous
 62
     2
100
AcDbLine
 10
966.714569933309
 20
-438.1306289981253
 30
0.0
 11
966.714569933309
 21
-437.9641436328997
 31
0.0
  0
LINE
  5
5F
330
1F
100
AcDbEntity
  8
0
  6
Continuous
 62
     2
100
AcDbLine
 10
966.714569933309
 20
-437.2306289981253
 30
0.0
 11
966.714569933309
 21
-437.0641436328996
 31
0.0
  0
LINE
  5
60
330
1F
100
AcDbEntity
  8
0
  6
Continuous
 62
     2
100
AcDbLine
 10
966.714569933309
 20
-439.0306289981253
 30
0.0
 11
966.714569933309
 21
-438.8641436328996
 31
0.0
  0
LINE
  5
61
330
1F
100
AcDbEntity
  8
0
  6
Continuous
 62
     2
100
AcDbLine
 10
966.714569933309
 20
-438.1306289981253
 30
0.0
 11
966.714569933309
 21
-438.8641436328996
 31
0.0
  0
LINE
  5
62
330
1F
100
AcDbEntity
  8
1
  6
Continuous
 62
     2
100
AcDbLine
 10
861.2395699333089
 20
-441.1973863155125
 30
0.0
 11
854.839569933309
 21
-441.1973863155125
 31
0.0
  0
LINE
  5
63
330
1F
100
AcDbEntity
  8
0
  6
Continuous
 62
     2
100
AcDbLine
 10
861.2395699333089
 20
-441.1973863155125
 30
0.0
 11
894.4395699333089
 21
-441.1973863155125
 31
0.0
  0
LINE
  5
64
330
1F
100
AcDbEntity
  8
0
  6
Continuous
 62
     2
100
AcDbLine
 10
900.839569933309
 20
-441.1973863155125
 30
0.0
 11
894.4395699333089
 21
-441.1973863155125
 31
0.0
  0
LINE
  5
65
330
1F
100
AcDbEntity
  8
1
  6
Continuous
 62
     2
100
AcDbLine
 10
864.6858222858291
 20
-384.1973863155125
 30
0.0
 11
864.685822285829
 21
-397.6973863155125
 31
0.0
  0
LINE
  5
66
330
1F
100
AcDbEntity
  8
1
  6
Continuous
 62
     2
100
AcDbLine
 10
890.9933175807892
 20
-384.1973863155125
 30
0.0
 11
890.993317580789
 21
-397.6973863155125
 31
0.0
  0
LINE
  5
67
330
1F
100
AcDbEntity
  8
1
  6
Continuous
 62
     7
100
AcDbLine
 10
891.9363533813371
 20
-384.1973863155125
 30
0.0
 11
891.936353381337
 21
-397.6973863155125
 31
0.0
  0
LINE
  5
68
330
1F
100
AcDbEntity
  8
1
  6
Continuous
 62
     7
100
AcDbLine
 10
945.6395699333088
 20
-384.1973863155125
 30
0.0
 11
945.639569933309
 21
-397.6919874835631
 31
0.0
  0
LINE
  5
69
330
1F
100
AcDbEntity
  8
1
  6
Continuous
 62
     2
100
AcDbLine
 10
946.5858222858292
 20
-384.1973863155125
 30
0.0
 11
946.5858222858291
 21
-397.6973863155125
 31
0.0
  0
LINE
  5
6A
330
1F
100
AcDbEntity
  8
1
  6
Continuous
 62
     2
100
AcDbLine
 10
972.8933175807888
 20
-384.1973863155125
 30
0.0
 11
972.8933175807889
 21
-397.6973863155125
 31
0.0
  0
LINE
  5
6B
330
1F
100
AcDbEntity
  8
1
  6
Continuous
 62
     7
100
AcDbLine
 10
973.839569933309
 20
-397.6973863155125
 30
0.0
 11
973.8395699333091
 21
-384.1973863155125
 31
0.0
  0
LINE
  5
6C
330
1F
100
AcDbEntity
  8
1
  6
Continuous
 62
     7
100
AcDbLine
 10
890.993317580789
 20
-397.6973863155125
 30
0.0
 11
891.936353381337
 21
-397.6973863155125
 31
0.0
  0
LINE
  5
6D
330
1F
100
AcDbEntity
  8
1
  6
Continuous
 62
     7
100
AcDbLine
 10
863.7427864852799
 20
-397.6973863155125
 30
0.0
 11
863.7427864852798
 21
-384.1973863155125
 31
0.0
  0
LINE
  5
6E
330
1F
100
AcDbEntity
  8
0
  6
Continuous
 62
     7
100
AcDbLine
 10
900.569730296067
 20
-424.1903310794305
 30
0.0
 11
894.46868744503
 21
-401.4209291802048
 31
0.0
  0
LINE
  5
6F
330
1F
100
AcDbEntity
  8
0
  6
Continuous
 62
     7
100
AcDbLine
 10
861.2395699333089
 20
-453.1973863155124
 30
0.0
 11
853.839569933309
 21
-453.1973863155124
 31
0.0
  0
LINE
  5
70
330
1F
100
AcDbEntity
  8
0
  6
Continuous
 62
     7
100
AcDbLine
 10
855.1094095705499
 20
-424.1903310794305
 30
0.0
 11
861.210452421588
 21
-401.4209291802048
 31
0.0
  0
LINE
  5
71
330
1F
100
AcDbEntity
  8
0
  6
Continuous
 62
     2
100
AcDbLine
 10
858.159757828484
 20
-424.3973863155125
 30
0.0
 11
859.2851444366948
 21
-420.1973863155125
 31
0.0
  0
LINE
  5
72
330
1F
100
AcDbEntity
  8
0
  6
Continuous
 62
     7
100
AcDbLine
 10
857.2381457142429
 20
-419.1973863155126
 30
0.0
 11
860.989434408278
 21
-405.1973863155125
 31
0.0
  0
LINE
  5
73
330
1F
100
AcDbEntity
  8
0
  6
Continuous
 62
     2
100
AcDbLine
 10
855.179406762012
 20
-436.3306289981253
 30
0.0
 11
854.999733104606
 21
-436.1641436328997
 31
0.0
  0
LINE
  5
74
330
1F
100
AcDbEntity
  8
0
  6
Continuous
 62
     7
100
AcDbLine
 10
854.839569933309
 20
-437.5973863155124
 30
0.0
 11
854.839569933309
 21
-435.7973863155125
 31
0.0
  0
LINE
  5
75
330
1F
100
AcDbEntity
  8
0
  6
Continuous
 62
     7
100
AcDbLine
 10
855.1094095705499
 20
-424.1903310794305
 30
0.0
 11
854.839569933309
 21
-425.1973863155124
 31
0.0
  0
LINE
  5
76
330
1F
100
AcDbEntity
  8
0
  6
Continuous
 62
     7
100
AcDbLine
 10
854.839569933309
 20
-425.1973863155124
 30
0.0
 11
854.839569933309
 21
-433.9973863155125
 31
0.0
  0
LINE
  5
77
330
1F
100
AcDbEntity
  8
0
  6
Continuous
 62
     7
100
AcDbLine
 10
854.839569933309
 20
-435.7973863155125
 30
0.0
 11
854.839569933309
 21
-433.9973863155125
 31
0.0
  0
LINE
  5
78
330
1F
100
AcDbEntity
  8
0
  6
Continuous
 62
     7
100
AcDbLine
 10
858.159757828484
 20
-425.1973863155125
 30
0.0
 11
855.8821502315819
 21
-425.1973863155125
 31
0.0
  0
LINE
  5
79
330
1F
100
AcDbEntity
  8
0
  6
Continuous
 62
     7
100
AcDbLine
 10
861.2395699333089
 20
-425.1973863155125
 30
0.0
 11
858.159757828484
 21
-425.1973863155125
 31
0.0
  0
LINE
  5
7A
330
1F
100
AcDbEntity
  8
0
  6
Continuous
 62
     2
100
AcDbLine
 10
855.179406762012
 20
-435.2641436328997
 30
0.0
 11
854.999733104606
 21
-435.4306289981252
 31
0.0
  0
LINE
  5
7B
330
1F
100
AcDbEntity
  8
0
  6
Continuous
 62
     2
100
AcDbLine
 10
861.2395699333089
 20
-435.2641436328997
 30
0.0
 11
855.179406762012
 21
-435.2641436328997
 31
0.0
  0
LINE
  5
7C
330
1F
100
AcDbEntity
  8
0
  6
Continuous
 62
     2
100
AcDbLine
 10
861.2395699333089
 20
-434.5306289981253
 30
0.0
 11
855.179406762012
 21
-434.5306289981253
 31
0.0
  0
LINE
  5
7D
330
1F
100
AcDbEntity
  8
0
  6
Continuous
 62
     2
100
AcDbLine
 10
855.179406762012
 20
-434.5306289981253
 30
0.0
 11
854.999733104606
 21
-434.3641436328996
 31
0.0
  0
LINE
  5
7E
330
1F
100
AcDbEntity
  8
0
  6
Continuous
 62
     2
100
AcDbLine
 10
861.2395699333089
 20
-436.3306289981253
 30
0.0
 11
855.179406762012
 21
-436.3306289981253
 31
0.0
  0
LINE
  5
7F
330
1F
100
AcDbEntity
  8
0
  6
Continuous
 62
     7
100
AcDbLine
 10
854.839569933309
 20
-439.3973863155124
 30
0.0
 11
854.839569933309
 21
-437.5973863155124
 31
0.0
  0
LINE
  5
80
330
1F
100
AcDbEntity
  8
0
  6
Continuous
 62
     2
100
AcDbLine
 10
861.2395699333089
 20
-433.9973863155125
 30
0.0
 11
854.839569933309
 21
-433.9973863155125
 31
0.0
  0
LINE
  5
81
330
1F
100
AcDbEntity
  8
0
  6
Continuous
 62
     7
100
AcDbLine
 10
854.839569933309
 20
-448.1973863155124
 30
0.0
 11
853.839569933309
 21
-448.1973863155124
 31
0.0
  0
LINE
  5
82
330
1F
100
AcDbEntity
  8
0
  6
Continuous
 62
     7
100
AcDbLine
 10
853.839569933309
 20
-453.1973863155124
 30
0.0
 11
853.839569933309
 21
-448.1973863155124
 31
0.0
  0
LINE
  5
83
330
1F
100
AcDbEntity
  8
0
  6
Continuous
 62
     2
100
AcDbLine
 10
891.570909966163
 20
-402.1973863155125
 30
0.0
 11
894.46868744503
 21
-401.4209291802048
 31
0.0
  0
LINE
  5
84
330
1F
100
AcDbEntity
  8
0
  6
Continuous
 62
     2
100
AcDbLine
 10
894.4395699333089
 20
-435.2641436328997
 30
0.0
 11
894.4395699333089
 21
-434.5306289981253
 31
0.0
  0
LINE
  5
85
330
1F
100
AcDbEntity
  8
0
  6
Continuous
 62
     2
100
AcDbLine
 10
894.4395699333089
 20
-433.9973863155125
 30
0.0
 11
894.4395699333089
 21
-434.3641436328996
 31
0.0
  0
LINE
  5
86
330
1F
100
AcDbEntity
  8
0
  6
Continuous
 62
     2
100
AcDbLine
 10
892.106808351025
 20
-404.1973863155125
 30
0.0
 11
891.570909966163
 21
-402.1973863155125
 31
0.0
  0
LINE
  5
87
330
1F
100
AcDbEntity
  8
0
  6
Continuous
 62
     2
100
AcDbLine
 10
894.4395699333089
 20
-433.9973863155125
 30
0.0
 11
894.4395699333089
 21
-425.1973863155125
 31
0.0
  0
LINE
  5
88
330
1F
100
AcDbEntity
  8
0
  6
Continuous
 62
     2
100
AcDbLine
 10
894.4395699333089
 20
-437.0641436328996
 30
0.0
 11
894.4395699333089
 21
-436.3306289981253
 31
0.0
  0
LINE
  5
89
330
1F
100
AcDbEntity
  8
0
  6
Continuous
 62
     2
100
AcDbLine
 10
894.4395699333089
 20
-435.4306289981252
 30
0.0
 11
894.4395699333089
 21
-436.1641436328997
 31
0.0
  0
LINE
  5
8A
330
1F
100
AcDbEntity
  8
0
  6
Continuous
 62
     2
100
AcDbLine
 10
894.4395699333089
 20
-435.2641436328997
 30
0.0
 11
894.4395699333089
 21
-435.4306289981252
 31
0.0
  0
LINE
  5
8B
330
1F
100
AcDbEntity
  8
0
  6
Continuous
 62
     2
100
AcDbLine
 10
894.4395699333089
 20
-437.0641436328996
 30
0.0
 11
894.4395699333089
 21
-437.2306289981253
 31
0.0
  0
LINE
  5
8C
330
1F
100
AcDbEntity
  8
0
  6
Continuous
 62
     2
100
AcDbLine
 10
894.4395699333089
 20
-436.3306289981253
 30
0.0
 11
894.4395699333089
 21
-436.1641436328997
 31
0.0
  0
LINE
  5
8D
330
1F
100
AcDbEntity
  8
0
  6
Continuous
 62
     2
100
AcDbLine
 10
894.4395699333089
 20
-438.8641436328996
 30
0.0
 11
894.4395699333089
 21
-439.0306289981253
 31
0.0
  0
LINE
  5
8E
330
1F
100
AcDbEntity
  8
0
  6
Continuous
 62
     2
100
AcDbLine
 10
894.4395699333089
 20
-437.2306289981253
 30
0.0
 11
894.4395699333089
 21
-437.9641436328997
 31
0.0
  0
LINE
  5
8F
330
1F
100
AcDbEntity
  8
0
  6
Continuous
 62
     2
100
AcDbLine
 10
894.4395699333089
 20
-438.1306289981253
 30
0.0
 11
894.4395699333089
 21
-437.9641436328997
 31
0.0
  0
LINE
  5
90
330
1F
100
AcDbEntity
  8
0
  6
Continuous
 62
     7
100
AcDbLine
 10
891.570909966163
 20
-399.1973863155125
 30
0.0
 11
891.9395699333089
 21
-399.1973863155125
 31
0.0
  0
LINE
  5
91
330
1F
100
AcDbEntity
  8
0
  6
Continuous
 62
     7
100
AcDbLine
 10
891.9395699333089
 20
-399.220124179149
 30
0.0
 11
891.9395699333089
 21
-399.1973863155125
 31
0.0
  0
LINE
  5
92
102
{ACAD_REACTORS
330
2E6
102
}
330
1F
100
AcDbEntity
  8
0
  6
Continuous
 62
     2
100
AcDbLine
 10
877.839569933309
 20
-415.1985553155125
 30
0.0
 11
872.7897087682251
 21
-412.2851738741173
 31
0.0
  0
LINE
  5
93
102
{ACAD_REACTORS
330
2E6
102
}
330
1F
100
AcDbEntity
  8
0
  6
Continuous
 62
     2
100
AcDbLine
 10
882.8894310983941
 20
-412.2851738741173
 30
0.0
 11
877.839569933309
 21
-415.1985553155125
 31
0.0
  0
LINE
  5
94
102
{ACAD_REACTORS
330
2E6
102
}
330
1F
100
AcDbEntity
  8
0
  6
Continuous
 62
     2
100
AcDbLine
 10
877.839569933309
 20
-415.4294527158172
 30
0.0
 11
882.989375589092
 21
-412.458410991327
 31
0.0
  0
LINE
  5
95
330
1F
100
AcDbEntity
  8
0
  6
Continuous
 62
     2
100
AcDbLine
 10
897.519382038134
 20
-424.3973863155125
 30
0.0
 11
858.159757828484
 21
-424.3973863155125
 31
0.0
  0
LINE
  5
96
330
1F
100
AcDbEntity
  8
0
  6
Continuous
 62
     7
100
AcDbLine
 10
859.2851444366948
 20
-420.1973863155125
 30
0.0
 11
896.3939954299229
 21
-420.1973863155125
 31
0.0
  0
LINE
  5
97
330
1F
100
AcDbEntity
  8
0
  6
Continuous
 62
     7
100
AcDbLine
 10
898.4409941523749
 20
-419.1973863155126
 30
0.0
 11
857.2381457142429
 21
-419.1973863155126
 31
0.0
  0
LINE
  5
98
102
{ACAD_REACTORS
330
2E6
102
}
330
1F
100
AcDbEntity
  8
0
  6
Continuous
 62
     2
100
AcDbLine
 10
872.6897642775272
 20
-412.4584109913271
 30
0.0
 11
877.839569933309
 21
-415.4294527158172
 31
0.0
  0
LINE
  5
99
102
{ACAD_REACTORS
330
2E7
102
}
330
1F
100
AcDbEntity
  8
0
  6
Continuous
 62
     2
100
AcDbLine
 10
877.7395144240071
 20
-414.2865106020956
 30
0.0
 11
876.43956993331
 21
-413.5365426266928
 31
0.0
  0
LINE
  5
9A
102
{ACAD_REACTORS
330
2E7
102
}
330
1F
100
AcDbEntity
  8
0
  6
Continuous
 62
     2
100
AcDbLine
 10
876.239680951914
 20
-413.8830168611124
 30
0.0
 11
877.539625442611
 21
-414.6329848365149
 31
0.0
  0
LINE
  5
9B
102
{ACAD_REACTORS
330
2E8
102
}
330
1F
100
AcDbEntity
  8
0
  6
Continuous
 62
     2
100
AcDbLine
 10
879.539514424007
 20
-413.8252925288227
 30
0.0
 11
880.339514424007
 21
-413.3637540672842
 31
0.0
  0
LINE
  5
9C
102
{ACAD_REACTORS
330
2E8
102
}
330
1F
100
AcDbEntity
  8
0
  6
Continuous
 62
     2
100
AcDbLine
 10
880.1396254426112
 20
-413.0172798328648
 30
0.0
 11
879.6395699333092
 21
-413.3057733959237
 31
0.0
  0
LINE
  5
9D
102
{ACAD_REACTORS
330
2E8
102
}
330
1F
100
AcDbEntity
  8
0
  6
Continuous
 62
     2
100
AcDbLine
 10
879.6395699333092
 20
-413.3057733959237
 30
0.0
 11
879.6395699333092
 21
-412.3985553155125
 31
0.0
  0
LINE
  5
9E
102
{ACAD_REACTORS
330
2E8
102
}
330
1F
100
AcDbEntity
  8
0
  6
Continuous
 62
     2
100
AcDbLine
 10
879.6395699333092
 20
-412.3985553155125
 30
0.0
 11
880.2395699333091
 21
-412.3985553155125
 31
0.0
  0
LINE
  5
9F
330
1F
100
AcDbEntity
  8
0
  6
Continuous
 62
     2
100
AcDbLine
 10
861.2395699333089
 20
-433.9973863155125
 30
0.0
 11
861.2395699333089
 21
-425.1973863155125
 31
0.0
  0
LINE
  5
A0
330
1F
100
AcDbEntity
  8
0
  6
Continuous
 62
     2
100
AcDbLine
 10
864.1082299004551
 20
-402.1973863155125
 30
0.0
 11
861.210452421588
 21
-401.4209291802048
 31
0.0
  0
LINE
  5
A1
330
1F
100
AcDbEntity
  8
0
  6
Continuous
 62
     2
100
AcDbLine
 10
863.572331515593
 20
-404.1973863155125
 30
0.0
 11
864.1082299004551
 21
-402.1973863155125
 31
0.0
  0
LINE
  5
A2
330
1F
100
AcDbEntity
  8
0
  6
Continuous
 62
     2
100
AcDbLine
 10
861.2395699333089
 20
-453.1973863155124
 30
0.0
 11
861.2395699333089
 21
-448.1973863155124
 31
0.0
  0
LINE
  5
A3
330
1F
100
AcDbEntity
  8
0
  6
Continuous
 62
     2
100
AcDbLine
 10
861.2395699333089
 20
-437.0641436328996
 30
0.0
 11
861.2395699333089
 21
-436.3306289981253
 31
0.0
  0
LINE
  5
A4
330
1F
100
AcDbEntity
  8
0
  6
Continuous
 62
     2
100
AcDbLine
 10
861.2395699333089
 20
-435.4306289981252
 30
0.0
 11
861.2395699333089
 21
-436.1641436328997
 31
0.0
  0
LINE
  5
A5
330
1F
100
AcDbEntity
  8
0
  6
Continuous
 62
     2
100
AcDbLine
 10
861.2395699333089
 20
-433.9973863155125
 30
0.0
 11
861.2395699333089
 21
-434.3641436328996
 31
0.0
  0
LINE
  5
A6
330
1F
100
AcDbEntity
  8
0
  6
Continuous
 62
     2
100
AcDbLine
 10
861.2395699333089
 20
-437.2306289981253
 30
0.0
 11
861.2395699333089
 21
-437.9641436328997
 31
0.0
  0
LINE
  5
A7
330
1F
100
AcDbEntity
  8
0
  6
Continuous
 62
     2
100
AcDbLine
 10
861.2395699333089
 20
-438.1306289981253
 30
0.0
 11
861.2395699333089
 21
-437.9641436328997
 31
0.0
  0
LINE
  5
A8
330
1F
100
AcDbEntity
  8
0
  6
Continuous
 62
     2
100
AcDbLine
 10
861.2395699333089
 20
-436.3306289981253
 30
0.0
 11
861.2395699333089
 21
-436.1641436328997
 31
0.0
  0
LINE
  5
A9
330
1F
100
AcDbEntity
  8
0
  6
Continuous
 62
     2
100
AcDbLine
 10
861.2395699333089
 20
-435.2641436328997
 30
0.0
 11
861.2395699333089
 21
-434.5306289981253
 31
0.0
  0
LINE
  5
AA
330
1F
100
AcDbEntity
  8
0
  6
Continuous
 62
     2
100
AcDbLine
 10
861.2395699333089
 20
-435.2641436328997
 30
0.0
 11
861.2395699333089
 21
-435.4306289981252
 31
0.0
  0
LINE
  5
AB
330
1F
100
AcDbEntity
  8
0
  6
Continuous
 62
     2
100
AcDbLine
 10
861.2395699333089
 20
-441.1973863155125
 30
0.0
 11
861.2395699333089
 21
-448.1973863155124
 31
0.0
  0
LINE
  5
AC
330
1F
100
AcDbEntity
  8
0
  6
Continuous
 62
     2
100
AcDbLine
 10
861.2395699333089
 20
-438.8641436328996
 30
0.0
 11
861.2395699333089
 21
-439.0306289981253
 31
0.0
  0
LINE
  5
AD
330
1F
100
AcDbEntity
  8
0
  6
Continuous
 62
     2
100
AcDbLine
 10
861.2395699333089
 20
-438.8641436328996
 30
0.0
 11
861.2395699333089
 21
-438.1306289981253
 31
0.0
  0
LINE
  5
AE
330
1F
100
AcDbEntity
  8
0
  6
Continuous
 62
     2
100
AcDbLine
 10
891.570909966163
 20
-402.1973863155125
 30
0.0
 11
891.570909966163
 21
-399.1973863155125
 31
0.0
  0
LINE
  5
AF
330
1F
100
AcDbEntity
  8
0
  6
Continuous
 62
     7
100
AcDbLine
 10
890.993317580789
 20
-399.1973863155125
 30
0.0
 11
891.570909966163
 21
-399.1973863155125
 31
0.0
  0
LINE
  5
B0
330
1F
100
AcDbEntity
  8
0
  6
Continuous
 62
     7
100
AcDbLine
 10
890.993317580789
 20
-399.1973863155125
 30
0.0
 11
890.993317580789
 21
-397.6973863155125
 31
0.0
  0
LINE
  5
B1
330
1F
100
AcDbEntity
  8
0
  6
Continuous
 62
     7
100
AcDbLine
 10
890.993317580789
 20
-397.6973863155125
 30
0.0
 11
877.839569933309
 21
-397.6973863155125
 31
0.0
  0
LINE
  5
B2
102
{ACAD_REACTORS
330
2E9
102
}
330
1F
100
AcDbEntity
  8
0
  6
Continuous
 62
     2
100
AcDbLine
 10
878.542909723135
 20
-410.1803350645491
 30
0.0
 11
877.839569933309
 21
-411.3985553155125
 31
0.0
  0
LINE
  5
B3
102
{ACAD_REACTORS
330
2E9
102
}
330
1F
100
AcDbEntity
  8
0
  6
Continuous
 62
     2
100
AcDbLine
 10
877.839569933309
 20
-411.3985553155125
 30
0.0
 11
877.136230143483
 21
-410.1803350645491
 31
0.0
  0
LINE
  5
B4
102
{ACAD_REACTORS
330
2E9
102
}
330
1F
100
AcDbEntity
  8
0
  6
Continuous
 62
     2
100
AcDbLine
 10
877.9261724736881
 20
-412.0485553155125
 30
0.0
 11
878.43956993331
 21
-411.1593248309712
 31
0.0
  0
LINE
  5
B5
102
{ACAD_REACTORS
330
2E9
102
}
330
1F
100
AcDbEntity
  8
0
  6
Continuous
 62
     2
100
AcDbLine
 10
877.2395699333091
 20
-411.1593248309712
 30
0.0
 11
877.752967392931
 21
-412.0485553155125
 31
0.0
  0
LINE
  5
B6
102
{ACAD_REACTORS
330
2E6
102
}
330
1F
100
AcDbEntity
  8
0
  6
Continuous
 62
     2
100
AcDbLine
 10
872.7897087682251
 20
-412.1119367569075
 30
0.0
 11
877.839569933309
 21
-409.1985553155125
 31
0.0
  0
LINE
  5
B7
102
{ACAD_REACTORS
330
2E6
102
}
330
1F
100
AcDbEntity
  8
0
  6
Continuous
 62
     2
100
AcDbLine
 10
882.989375589092
 20
-411.938699639698
 30
0.0
 11
877.839569933309
 21
-408.9676579152078
 31
0.0
  0
LINE
  5
B8
330
1F
100
AcDbEntity
  8
0
  6
Continuous
 62
     2
100
AcDbLine
 10
882.5233184321079
 20
-402.1973863155125
 30
0.0
 11
891.570909966163
 21
-402.1973863155125
 31
0.0
  0
LINE
  5
B9
330
1F
100
AcDbEntity
  8
0
  6
Continuous
 62
     7
100
AcDbLine
 10
873.1558214345099
 20
-404.1973863155125
 30
0.0
 11
863.572331515593
 21
-404.1973863155125
 31
0.0
  0
LINE
  5
BA
330
1F
100
AcDbEntity
  8
0
  6
Continuous
 62
     7
100
AcDbLine
 10
860.989434408278
 20
-405.1973863155125
 30
0.0
 11
894.6897054583391
 21
-405.1973863155125
 31
0.0
  0
LINE
  5
BB
330
1F
100
AcDbEntity
  8
0
  6
Continuous
 62
     7
100
AcDbLine
 10
892.106808351025
 20
-404.1973863155125
 30
0.0
 11
882.5233184321079
 21
-404.1973863155125
 31
0.0
  0
LINE
  5
BC
330
1F
100
AcDbEntity
  8
0
  6
Continuous
 62
     7
100
AcDbLine
 10
863.7395699333089
 20
-399.220124179149
 30
0.0
 11
863.7395699333089
 21
-399.1973863155125
 31
0.0
  0
LINE
  5
BD
330
1F
100
AcDbEntity
  8
0
  6
Continuous
 62
     2
100
AcDbLine
 10
864.1082299004551
 20
-402.1973863155125
 30
0.0
 11
864.1082299004551
 21
-399.1973863155125
 31
0.0
  0
LINE
  5
BE
330
1F
100
AcDbEntity
  8
0
  6
Continuous
 62
     7
100
AcDbLine
 10
863.7395699333089
 20
-399.1973863155125
 30
0.0
 11
864.1082299004551
 21
-399.1973863155125
 31
0.0
  0
LINE
  5
BF
330
1F
100
AcDbEntity
  8
0
  6
Continuous
 62
     7
100
AcDbLine
 10
886.9876571650749
 20
-399.1973863155125
 30
0.0
 11
890.993317580789
 21
-399.1973863155125
 31
0.0
  0
LINE
  5
C0
330
1F
100
AcDbEntity
  8
0
  6
Continuous
 62
     7
100
AcDbLine
 10
864.685822285829
 20
-399.1973863155125
 30
0.0
 11
868.6914827015429
 21
-399.1973863155125
 31
0.0
  0
LINE
  5
C1
102
{ACAD_REACTORS
330
2E6
102
}
330
1F
100
AcDbEntity
  8
0
  6
Continuous
 62
     2
100
AcDbLine
 10
877.839569933309
 20
-408.9676579152078
 30
0.0
 11
872.6897642775272
 21
-411.938699639698
 31
0.0
  0
LINE
  5
C2
102
{ACAD_REACTORS
330
2E8
102
}
330
1F
100
AcDbEntity
  8
0
  6
Continuous
 62
     2
100
AcDbLine
 10
879.6395699333092
 20
-411.0913372351013
 30
0.0
 11
880.1396254426112
 21
-411.3798307981602
 31
0.0
  0
LINE
  5
C3
102
{ACAD_REACTORS
330
2E8
102
}
330
1F
100
AcDbEntity
  8
0
  6
Continuous
 62
     2
100
AcDbLine
 10
880.339514424007
 20
-411.0333565637408
 30
0.0
 11
879.539514424007
 21
-410.5718181022023
 31
0.0
  0
LINE
  5
C4
102
{ACAD_REACTORS
330
2E6
102
}
330
1F
100
AcDbEntity
  8
0
  6
Continuous
 62
     2
100
AcDbLine
 10
877.839569933309
 20
-409.1985553155125
 30
0.0
 11
882.8894310983941
 21
-412.1119367569075
 31
0.0
  0
LINE
  5
C5
102
{ACAD_REACTORS
330
2E8
102
}
330
1F
100
AcDbEntity
  8
0
  6
Continuous
 62
     2
100
AcDbLine
 10
880.2395699333091
 20
-411.9985553155125
 30
0.0
 11
879.6395699333092
 21
-411.9985553155125
 31
0.0
  0
LINE
  5
C6
102
{ACAD_REACTORS
330
2E8
102
}
330
1F
100
AcDbEntity
  8
0
  6
Continuous
 62
     2
100
AcDbLine
 10
879.6395699333092
 20
-411.9985553155125
 30
0.0
 11
879.6395699333092
 21
-411.0913372351013
 31
0.0
  0
LINE
  5
C7
102
{ACAD_REACTORS
330
2E7
102
}
330
1F
100
AcDbEntity
  8
0
  6
Continuous
 62
     2
100
AcDbLine
 10
876.43956993331
 20
-413.5365426266928
 30
0.0
 11
876.43956993331
 21
-410.7450552194119
 31
0.0
  0
LINE
  5
C8
102
{ACAD_REACTORS
330
2E9
102
}
330
1F
100
AcDbEntity
  8
0
  6
Continuous
 62
     2
100
AcDbLine
 10
877.2395699333091
 20
-413.1900042719328
 30
0.0
 11
877.2395699333091
 21
-411.1593248309712
 31
0.0
  0
LINE
  5
C9
102
{ACAD_REACTORS
330
2E9
102
}
330
1F
100
AcDbEntity
  8
0
  6
Continuous
 62
     2
100
AcDbLine
 10
876.839569933309
 20
-410.2598249282918
 30
0.0
 11
876.839569933309
 21
-413.1900042719328
 31
0.0
  0
LINE
  5
CA
102
{ACAD_REACTORS
330
2E5
102
}
330
1F
100
AcDbEntity
  8
0
  6
Continuous
 62
     2
100
AcDbLine
 10
875.2395699333091
 20
-411.2065936809505
 30
0.0
 11
875.2395699333091
 21
-413.1905169500745
 31
0.0
  0
LINE
  5
CB
102
{ACAD_REACTORS
330
2E5
102
}
330
1F
100
AcDbEntity
  8
0
  6
Continuous
 62
     2
100
AcDbLine
 10
875.6395699333092
 20
-413.1905169500745
 30
0.0
 11
875.6395699333092
 21
-411.2065936809505
 31
0.0
  0
LINE
  5
CC
102
{ACAD_REACTORS
330
2E7
102
}
330
1F
100
AcDbEntity
  8
0
  6
Continuous
 62
     2
100
AcDbLine
 10
876.039569933309
 20
-410.7450552194119
 30
0.0
 11
876.039569933309
 21
-413.5365426266928
 31
0.0
  0
LINE
  5
CD
102
{ACAD_REACTORS
330
2E8
102
}
330
1F
100
AcDbEntity
  8
0
  6
Continuous
 62
     2
100
AcDbLine
 10
879.2395699333091
 20
-410.7450552194119
 30
0.0
 11
879.2395699333091
 21
-413.6520554116129
 31
0.0
  0
LINE
  5
CE
102
{ACAD_REACTORS
330
2E9
102
}
330
1F
100
AcDbEntity
  8
0
  6
Continuous
 62
     2
100
AcDbLine
 10
878.43956993331
 20
-411.1593248309712
 30
0.0
 11
878.43956993331
 21
-414.1135938731514
 31
0.0
  0
LINE
  5
CF
102
{ACAD_REACTORS
330
2E9
102
}
330
1F
100
AcDbEntity
  8
0
  6
Continuous
 62
     2
100
AcDbLine
 10
878.839569933309
 20
-414.1135938731514
 30
0.0
 11
878.839569933309
 21
-410.2598249282918
 31
0.0
  0
LINE
  5
D0
330
1F
100
AcDbEntity
  8
0
  6
Continuous
 62
     7
100
AcDbLine
 10
880.254384499032
 20
-444.0503387027562
 30
0.0
 11
881.3655825578429
 21
-448.1973863155124
 31
0.0
  0
LINE
  5
D1
330
1F
100
AcDbEntity
  8
0
  6
Continuous
 62
     7
100
AcDbLine
 10
875.424755367586
 20
-444.0503387027562
 30
0.0
 11
874.3135573087749
 21
-448.1973863155124
 31
0.0
  0
LINE
  5
D2
330
1F
100
AcDbEntity
  8
0
  6
Continuous
 62
     2
100
AcDbLine
 10
855.179406762012
 20
-440.6641436328997
 30
0.0
 11
854.999733104606
 21
-440.8306289981253
 31
0.0
  0
LINE
  5
D3
330
1F
100
AcDbEntity
  8
0
  6
Continuous
 62
     2
100
AcDbLine
 10
861.2395699333089
 20
-439.0306289981253
 30
0.0
 11
861.2395699333089
 21
-439.7641436328997
 31
0.0
  0
LINE
  5
D4
330
1F
100
AcDbEntity
  8
0
  6
Continuous
 62
     2
100
AcDbLine
 10
894.4395699333089
 20
-439.0306289981253
 30
0.0
 11
894.4395699333089
 21
-439.7641436328997
 31
0.0
  0
LINE
  5
D5
330
1F
100
AcDbEntity
  8
0
  6
Continuous
 62
     2
100
AcDbLine
 10
861.2395699333089
 20
-439.9306289981252
 30
0.0
 11
894.4395699333089
 21
-439.9306289981252
 31
0.0
  0
LINE
  5
D6
330
1F
100
AcDbEntity
  8
0
  6
Continuous
 62
     2
100
AcDbLine
 10
861.2395699333089
 20
-440.8306289981253
 30
0.0
 11
861.2395699333089
 21
-441.1973863155125
 31
0.0
  0
LINE
  5
D7
330
1F
100
AcDbEntity
  8
0
  6
Continuous
 62
     2
100
AcDbLine
 10
894.4395699333089
 20
-440.6641436328997
 30
0.0
 11
861.2395699333089
 21
-440.6641436328997
 31
0.0
  0
LINE
  5
D8
330
1F
100
AcDbEntity
  8
0
  6
Continuous
 62
     2
100
AcDbLine
 10
861.2395699333089
 20
-440.6641436328997
 30
0.0
 11
861.2395699333089
 21
-439.9306289981252
 31
0.0
  0
LINE
  5
D9
330
1F
100
AcDbEntity
  8
0
  6
Continuous
 62
     2
100
AcDbLine
 10
861.2395699333089
 20
-440.6641436328997
 30
0.0
 11
861.2395699333089
 21
-440.8306289981253
 31
0.0
  0
LINE
  5
DA
330
1F
100
AcDbEntity
  8
0
  6
Continuous
 62
     2
100
AcDbLine
 10
861.2395699333089
 20
-439.9306289981252
 30
0.0
 11
861.2395699333089
 21
-439.7641436328997
 31
0.0
  0
LINE
  5
DB
330
1F
100
AcDbEntity
  8
0
  6
Continuous
 62
     2
100
AcDbLine
 10
894.4395699333089
 20
-439.9306289981252
 30
0.0
 11
894.4395699333089
 21
-439.7641436328997
 31
0.0
  0
LINE
  5
DC
330
1F
100
AcDbEntity
  8
0
  6
Continuous
 62
     2
100
AcDbLine
 10
861.2395699333089
 20
-439.9306289981252
 30
0.0
 11
855.179406762012
 21
-439.9306289981252
 31
0.0
  0
LINE
  5
DD
330
1F
100
AcDbEntity
  8
0
  6
Continuous
 62
     2
100
AcDbLine
 10
861.2395699333089
 20
-440.6641436328997
 30
0.0
 11
855.179406762012
 21
-440.6641436328997
 31
0.0
  0
LINE
  5
DE
330
1F
100
AcDbEntity
  8
0
  6
Continuous
 62
     2
100
AcDbLine
 10
855.179406762012
 20
-439.9306289981252
 30
0.0
 11
854.999733104606
 21
-439.7641436328997
 31
0.0
  0
LINE
  5
DF
330
1F
100
AcDbEntity
  8
0
  6
Continuous
 62
     7
100
AcDbLine
 10
854.839569933309
 20
-441.1973863155125
 30
0.0
 11
854.839569933309
 21
-439.3973863155124
 31
0.0
  0
LINE
  5
E0
330
1F
100
AcDbEntity
  8
0
  6
Continuous
 62
     2
100
AcDbLine
 10
855.179406762012
 20
-438.1306289981253
 30
0.0
 11
854.999733104606
 21
-437.9641436328997
 31
0.0
  0
LINE
  5
E1
330
1F
100
AcDbEntity
  8
0
  6
Continuous
 62
     2
100
AcDbLine
 10
861.2395699333089
 20
-438.1306289981253
 30
0.0
 11
855.179406762012
 21
-438.1306289981253
 31
0.0
  0
LINE
  5
E2
330
1F
100
AcDbEntity
  8
0
  6
Continuous
 62
     2
100
AcDbLine
 10
894.4395699333089
 20
-438.1306289981253
 30
0.0
 11
861.2395699333089
 21
-438.1306289981253
 31
0.0
  0
LINE
  5
E3
330
1F
100
AcDbEntity
  8
0
  6
Continuous
 62
     2
100
AcDbLine
 10
894.4395699333089
 20
-438.8641436328996
 30
0.0
 11
894.4395699333089
 21
-438.1306289981253
 31
0.0
  0
LINE
  5
E4
330
1F
100
AcDbEntity
  8
0
  6
Continuous
 62
     2
100
AcDbLine
 10
855.179406762012
 20
-437.0641436328996
 30
0.0
 11
854.999733104606
 21
-437.2306289981253
 31
0.0
  0
LINE
  5
E5
330
1F
100
AcDbEntity
  8
0
  6
Continuous
 62
     2
100
AcDbLine
 10
861.2395699333089
 20
-437.0641436328996
 30
0.0
 11
855.179406762012
 21
-437.0641436328996
 31
0.0
  0
LINE
  5
E6
330
1F
100
AcDbEntity
  8
0
  6
Continuous
 62
     2
100
AcDbLine
 10
894.4395699333089
 20
-437.0641436328996
 30
0.0
 11
861.2395699333089
 21
-437.0641436328996
 31
0.0
  0
LINE
  5
E7
330
1F
100
AcDbEntity
  8
0
  6
Continuous
 62
     2
100
AcDbLine
 10
855.179406762012
 20
-438.8641436328996
 30
0.0
 11
854.999733104606
 21
-439.0306289981253
 31
0.0
  0
LINE
  5
E8
330
1F
100
AcDbEntity
  8
0
  6
Continuous
 62
     2
100
AcDbLine
 10
894.4395699333089
 20
-438.8641436328996
 30
0.0
 11
861.2395699333089
 21
-438.8641436328996
 31
0.0
  0
LINE
  5
E9
330
1F
100
AcDbEntity
  8
0
  6
Continuous
 62
     2
100
AcDbLine
 10
861.2395699333089
 20
-438.8641436328996
 30
0.0
 11
855.179406762012
 21
-438.8641436328996
 31
0.0
  0
LINE
  5
EA
330
1F
100
AcDbEntity
  8
0
  6
Continuous
 62
     7
100
AcDbLine
 10
875.839569933309
 20
-444.6973863155125
 30
0.0
 11
879.839569933309
 21
-444.6973863155125
 31
0.0
  0
LINE
  5
EB
330
1F
100
AcDbEntity
  8
0
  6
Continuous
 62
     7
100
AcDbLine
 10
874.3135573087749
 20
-448.1973863155124
 30
0.0
 11
861.2395699333089
 21
-448.1973863155124
 31
0.0
  0
LINE
  5
EC
330
1F
100
AcDbEntity
  8
0
  6
Continuous
 62
     7
100
AcDbLine
 10
881.3655825578429
 20
-448.1973863155124
 30
0.0
 11
894.4395699333089
 21
-448.1973863155124
 31
0.0
  0
LINE
  5
ED
330
1F
100
AcDbEntity
  8
0
  6
Continuous
 62
     7
100
AcDbLine
 10
879.839569933309
 20
-448.1973863155124
 30
0.0
 11
875.839569933309
 21
-448.1973863155124
 31
0.0
  0
LINE
  5
EE
330
1F
100
AcDbEntity
  8
0
  6
Continuous
 62
     7
100
AcDbLine
 10
875.839569933309
 20
-448.1973863155124
 30
0.0
 11
875.839569933309
 21
-444.6973863155125
 31
0.0
  0
LINE
  5
EF
330
1F
100
AcDbEntity
  8
0
  6
Continuous
 62
     7
100
AcDbLine
 10
879.839569933309
 20
-448.1973863155124
 30
0.0
 11
879.839569933309
 21
-444.6973863155125
 31
0.0
  0
LINE
  5
F0
330
1F
100
AcDbEntity
  8
0
  6
Continuous
 62
     7
100
AcDbLine
 10
854.839569933309
 20
-441.1973863155125
 30
0.0
 11
854.839569933309
 21
-448.1973863155124
 31
0.0
  0
LINE
  5
F1
330
1F
100
AcDbEntity
  8
0
  6
Continuous
 62
     7
100
AcDbLine
 10
861.2395699333089
 20
-448.1973863155124
 30
0.0
 11
854.839569933309
 21
-448.1973863155124
 31
0.0
  0
LINE
  5
F2
330
1F
100
AcDbEntity
  8
0
  6
Continuous
 62
     2
100
AcDbLine
 10
897.519382038134
 20
-424.3973863155125
 30
0.0
 11
896.3939954299229
 21
-420.1973863155125
 31
0.0
  0
LINE
  5
F3
330
1F
100
AcDbEntity
  8
0
  6
Continuous
 62
     7
100
AcDbLine
 10
898.4409941523749
 20
-419.1973863155126
 30
0.0
 11
894.6897054583391
 21
-405.1973863155125
 31
0.0
  0
LINE
  5
F4
330
1F
100
AcDbEntity
  8
0
  6
Continuous
 62
     2
100
AcDbLine
 10
894.4395699333089
 20
-434.5306289981253
 30
0.0
 11
894.4395699333089
 21
-434.3641436328996
 31
0.0
  0
LINE
  5
F5
330
1F
100
AcDbEntity
  8
0
  6
Continuous
 62
     2
100
AcDbLine
 10
894.4395699333089
 20
-440.6641436328997
 30
0.0
 11
894.4395699333089
 21
-439.9306289981252
 31
0.0
  0
LINE
  5
F6
330
1F
100
AcDbEntity
  8
0
  6
Continuous
 62
     2
100
AcDbLine
 10
894.4395699333089
 20
-440.6641436328997
 30
0.0
 11
894.4395699333089
 21
-440.8306289981253
 31
0.0
  0
LINE
  5
F7
330
1F
100
AcDbEntity
  8
0
  6
Continuous
 62
     2
100
AcDbLine
 10
894.4395699333089
 20
-441.1973863155125
 30
0.0
 11
894.4395699333089
 21
-448.1973863155124
 31
0.0
  0
LINE
  5
F8
330
1F
100
AcDbEntity
  8
0
  6
Continuous
 62
     2
100
AcDbLine
 10
894.4395699333089
 20
-440.8306289981253
 30
0.0
 11
894.4395699333089
 21
-441.1973863155125
 31
0.0
  0
LINE
  5
F9
330
1F
100
AcDbEntity
  8
0
  6
Continuous
 62
     7
100
AcDbLine
 10
861.2395699333089
 20
-453.1973863155124
 30
0.0
 11
894.4395699333089
 21
-453.1973863155124
 31
0.0
  0
LINE
  5
FA
330
1F
100
AcDbEntity
  8
0
  6
Continuous
 62
     2
100
AcDbLine
 10
894.4395699333089
 20
-453.1973863155124
 30
0.0
 11
894.4395699333089
 21
-448.1973863155124
 31
0.0
  0
LINE
  5
FB
330
1F
100
AcDbEntity
  8
0
  6
Continuous
 62
     7
100
AcDbLine
 10
897.519382038134
 20
-425.1973863155125
 30
0.0
 11
894.4395699333089
 21
-425.1973863155125
 31
0.0
  0
LINE
  5
FC
330
1F
100
AcDbEntity
  8
0
  6
Continuous
 62
     2
100
AcDbLine
 10
894.4395699333089
 20
-434.5306289981253
 30
0.0
 11
900.499733104606
 21
-434.5306289981253
 31
0.0
  0
LINE
  5
FD
330
1F
100
AcDbEntity
  8
0
  6
Continuous
 62
     2
100
AcDbLine
 10
894.4395699333089
 20
-435.2641436328997
 30
0.0
 11
900.499733104606
 21
-435.2641436328997
 31
0.0
  0
LINE
  5
FE
330
1F
100
AcDbEntity
  8
0
  6
Continuous
 62
     2
100
AcDbLine
 10
900.499733104606
 20
-440.6641436328997
 30
0.0
 11
900.679406762012
 21
-440.8306289981253
 31
0.0
  0
LINE
  5
FF
330
1F
100
AcDbEntity
  8
0
  6
Continuous
 62
     2
100
AcDbLine
 10
894.4395699333089
 20
-439.9306289981252
 30
0.0
 11
900.499733104606
 21
-439.9306289981252
 31
0.0
  0
LINE
  5
100
330
1F
100
AcDbEntity
  8
0
  6
Continuous
 62
     2
100
AcDbLine
 10
894.4395699333089
 20
-440.6641436328997
 30
0.0
 11
900.499733104606
 21
-440.6641436328997
 31
0.0
  0
LINE
  5
101
330
1F
100
AcDbEntity
  8
0
  6
Continuous
 62
     2
100
AcDbLine
 10
894.4395699333089
 20
-438.8641436328996
 30
0.0
 11
900.499733104606
 21
-438.8641436328996
 31
0.0
  0
LINE
  5
102
330
1F
100
AcDbEntity
  8
0
  6
Continuous
 62
     7
100
AcDbLine
 10
894.4395699333089
 20
-448.1973863155124
 30
0.0
 11
900.839569933309
 21
-448.1973863155124
 31
0.0
  0
LINE
  5
103
330
1F
100
AcDbEntity
  8
0
  6
Continuous
 62
     7
100
AcDbLine
 10
900.839569933309
 20
-435.7973863155125
 30
0.0
 11
900.839569933309
 21
-433.9973863155125
 31
0.0
  0
LINE
  5
104
330
1F
100
AcDbEntity
  8
0
  6
Continuous
 62
     7
100
AcDbLine
 10
900.839569933309
 20
-425.1973863155124
 30
0.0
 11
900.839569933309
 21
-433.9973863155125
 31
0.0
  0
LINE
  5
105
330
1F
100
AcDbEntity
  8
0
  6
Continuous
 62
     2
100
AcDbLine
 10
900.499733104606
 20
-434.5306289981253
 30
0.0
 11
900.679406762012
 21
-434.3641436328996
 31
0.0
  0
LINE
  5
106
330
1F
100
AcDbEntity
  8
0
  6
Continuous
 62
     7
100
AcDbLine
 10
900.839569933309
 20
-437.5973863155124
 30
0.0
 11
900.839569933309
 21
-435.7973863155125
 31
0.0
  0
LINE
  5
107
330
1F
100
AcDbEntity
  8
0
  6
Continuous
 62
     2
100
AcDbLine
 10
900.499733104606
 20
-437.0641436328996
 30
0.0
 11
900.679406762012
 21
-437.2306289981253
 31
0.0
  0
LINE
  5
108
330
1F
100
AcDbEntity
  8
0
  6
Continuous
 62
     2
100
AcDbLine
 10
900.499733104606
 20
-436.3306289981253
 30
0.0
 11
900.679406762012
 21
-436.1641436328997
 31
0.0
  0
LINE
  5
109
330
1F
100
AcDbEntity
  8
0
  6
Continuous
 62
     7
100
AcDbLine
 10
900.839569933309
 20
-439.3973863155124
 30
0.0
 11
900.839569933309
 21
-437.5973863155124
 31
0.0
  0
LINE
  5
10A
330
1F
100
AcDbEntity
  8
0
  6
Continuous
 62
     2
100
AcDbLine
 10
900.499733104606
 20
-439.9306289981252
 30
0.0
 11
900.679406762012
 21
-439.7641436328997
 31
0.0
  0
LINE
  5
10B
330
1F
100
AcDbEntity
  8
0
  6
Continuous
 62
     2
100
AcDbLine
 10
900.499733104606
 20
-438.8641436328996
 30
0.0
 11
900.679406762012
 21
-439.0306289981253
 31
0.0
  0
LINE
  5
10C
330
1F
100
AcDbEntity
  8
0
  6
Continuous
 62
     2
100
AcDbLine
 10
900.499733104606
 20
-438.1306289981253
 30
0.0
 11
900.679406762012
 21
-437.9641436328997
 31
0.0
  0
LINE
  5
10D
330
1F
100
AcDbEntity
  8
0
  6
Continuous
 62
     7
100
AcDbLine
 10
900.839569933309
 20
-441.1973863155125
 30
0.0
 11
900.839569933309
 21
-448.1973863155124
 31
0.0
  0
LINE
  5
10E
330
1F
100
AcDbEntity
  8
0
  6
Continuous
 62
     7
100
AcDbLine
 10
900.839569933309
 20
-441.1973863155125
 30
0.0
 11
900.839569933309
 21
-439.3973863155124
 31
0.0
  0
LINE
  5
10F
330
1F
100
AcDbEntity
  8
0
  6
Continuous
 62
     7
100
AcDbLine
 10
897.519382038134
 20
-425.1973863155125
 30
0.0
 11
899.7969896350359
 21
-425.1973863155125
 31
0.0
  0
LINE
  5
110
330
1F
100
AcDbEntity
  8
0
  6
Continuous
 62
     2
100
AcDbLine
 10
900.499733104606
 20
-435.2641436328997
 30
0.0
 11
900.679406762012
 21
-435.4306289981252
 31
0.0
  0
LINE
  5
111
330
1F
100
AcDbEntity
  8
0
  6
Continuous
 62
     2
100
AcDbLine
 10
894.4395699333089
 20
-437.0641436328996
 30
0.0
 11
900.499733104606
 21
-437.0641436328996
 31
0.0
  0
LINE
  5
112
330
1F
100
AcDbEntity
  8
0
  6
Continuous
 62
     2
100
AcDbLine
 10
894.4395699333089
 20
-436.3306289981253
 30
0.0
 11
900.499733104606
 21
-436.3306289981253
 31
0.0
  0
LINE
  5
113
330
1F
100
AcDbEntity
  8
0
  6
Continuous
 62
     2
100
AcDbLine
 10
894.4395699333089
 20
-438.1306289981253
 30
0.0
 11
900.499733104606
 21
-438.1306289981253
 31
0.0
  0
LINE
  5
114
330
1F
100
AcDbEntity
  8
0
  6
Continuous
 62
     7
100
AcDbLine
 10
901.839569933309
 20
-453.1973863155124
 30
0.0
 11
901.839569933309
 21
-448.1973863155124
 31
0.0
  0
LINE
  5
115
330
1F
100
AcDbEntity
  8
0
  6
Continuous
 62
     7
100
AcDbLine
 10
900.839569933309
 20
-448.1973863155124
 30
0.0
 11
901.839569933309
 21
-448.1973863155124
 31
0.0
  0
LINE
  5
116
330
1F
100
AcDbEntity
  8
0
  6
Continuous
 62
     7
100
AcDbLine
 10
894.4395699333089
 20
-453.1973863155124
 30
0.0
 11
901.839569933309
 21
-453.1973863155124
 31
0.0
  0
LINE
  5
117
330
1F
100
AcDbEntity
  8
0
  6
Continuous
 62
     2
100
AcDbLine
 10
894.4395699333089
 20
-433.9973863155125
 30
0.0
 11
900.839569933309
 21
-433.9973863155125
 31
0.0
  0
LINE
  5
118
330
1F
100
AcDbEntity
  8
0
  6
Continuous
 62
     7
100
AcDbLine
 10
900.569730296067
 20
-424.1903310794305
 30
0.0
 11
900.839569933309
 21
-425.1973863155124
 31
0.0
  0
LINE
  5
119
330
1F
100
AcDbEntity
  8
0
  6
Continuous
 62
     7
100
AcDbLine
 10
894.4395699333089
 20
-425.1973863155125
 30
0.0
 11
861.2395699333089
 21
-425.1973863155125
 31
0.0
  0
LINE
  5
11A
330
1F
100
AcDbEntity
  8
0
  6
Continuous
 62
     2
100
AcDbLine
 10
861.2395699333089
 20
-435.2641436328997
 30
0.0
 11
894.4395699333089
 21
-435.2641436328997
 31
0.0
  0
LINE
  5
11B
330
1F
100
AcDbEntity
  8
0
  6
Continuous
 62
     2
100
AcDbLine
 10
861.2395699333089
 20
-434.5306289981253
 30
0.0
 11
894.4395699333089
 21
-434.5306289981253
 31
0.0
  0
LINE
  5
11C
330
1F
100
AcDbEntity
  8
0
  6
Continuous
 62
     2
100
AcDbLine
 10
861.2395699333089
 20
-434.5306289981253
 30
0.0
 11
861.2395699333089
 21
-434.3641436328996
 31
0.0
  0
LINE
  5
11D
330
1F
100
AcDbEntity
  8
0
  6
Continuous
 62
     2
100
AcDbLine
 10
861.2395699333089
 20
-433.9973863155125
 30
0.0
 11
894.4395699333089
 21
-433.9973863155125
 31
0.0
  0
LINE
  5
11E
330
1F
100
AcDbEntity
  8
0
  6
Continuous
 62
     2
100
AcDbLine
 10
894.4395699333089
 20
-436.3306289981253
 30
0.0
 11
861.2395699333089
 21
-436.3306289981253
 31
0.0
  0
LINE
  5
11F
330
1F
100
AcDbEntity
  8
0
  6
Continuous
 62
     2
100
AcDbLine
 10
861.2395699333089
 20
-437.0641436328996
 30
0.0
 11
861.2395699333089
 21
-437.2306289981253
 31
0.0
  0
LINE
  5
120
330
1F
100
AcDbEntity
  8
0
  6
Continuous
 62
     7
100
AcDbLine
 10
864.685822285829
 20
-397.6973863155125
 30
0.0
 11
877.839569933309
 21
-397.6973863155125
 31
0.0
  0
LINE
  5
121
330
1F
100
AcDbEntity
  8
0
  6
Continuous
 62
     7
100
AcDbLine
 10
873.1558214345099
 20
-404.1973863155125
 30
0.0
 11
873.1558214345099
 21
-402.1973863155125
 31
0.0
  0
LINE
  5
122
330
1F
100
AcDbEntity
  8
0
  6
Continuous
 62
     7
100
AcDbLine
 10
882.5233184321079
 20
-404.1973863155125
 30
0.0
 11
882.5233184321079
 21
-402.1973863155125
 31
0.0
  0
LINE
  5
123
330
1F
100
AcDbEntity
  8
0
  6
Continuous
 62
     2
100
AcDbLine
 10
864.1082299004551
 20
-402.1973863155125
 30
0.0
 11
873.1558214345099
 21
-402.1973863155125
 31
0.0
  0
LINE
  5
124
330
1F
100
AcDbEntity
  8
0
  6
Continuous
 62
     7
100
AcDbLine
 10
864.685822285829
 20
-399.1973863155125
 30
0.0
 11
864.685822285829
 21
-397.6973863155125
 31
0.0
  0
LINE
  5
125
330
1F
100
AcDbEntity
  8
0
  6
Continuous
 62
     7
100
AcDbLine
 10
863.7395699333089
 20
-397.6973863155125
 30
0.0
 11
864.685822285829
 21
-397.6973863155125
 31
0.0
  0
LINE
  5
126
330
1F
100
AcDbEntity
  8
0
  6
Continuous
 62
     7
100
AcDbLine
 10
864.1082299004551
 20
-399.1973863155125
 30
0.0
 11
864.685822285829
 21
-399.1973863155125
 31
0.0
  0
LINE
  5
127
330
1F
100
AcDbEntity
  8
0
  6
Continuous
 62
     7
100
AcDbLine
 10
868.6914827015429
 20
-399.1973863155125
 30
0.0
 11
886.9876571650749
 21
-399.1973863155125
 31
0.0
  0
LINE
  5
128
330
1F
100
AcDbEntity
  8
0
  6
Continuous
 62
     7
100
AcDbLine
 10
977.139569933309
 20
-442.6973863155125
 30
0.0
 11
973.9895699333091
 21
-442.6973863155125
 31
0.0
  0
LINE
  5
129
330
1F
100
AcDbEntity
  8
0
  6
Continuous
 62
     7
100
AcDbLine
 10
973.1145699333091
 20
-441.1973863155125
 30
0.0
 11
973.1145699333091
 21
-442.1973863155125
 31
0.0
  0
LINE
  5
12A
330
1F
100
AcDbEntity
  8
0
  6
Continuous
 62
     7
100
AcDbLine
 10
973.1145699333091
 20
-442.1973863155125
 30
0.0
 11
973.1145699333091
 21
-448.1973863155124
 31
0.0
  0
LINE
  5
12B
330
1F
100
AcDbEntity
  8
0
  6
Continuous
 62
     7
100
AcDbLine
 10
973.9895699333091
 20
-444.0503387027562
 30
0.0
 11
973.9895699333091
 21
-444.6973863155125
 31
0.0
  0
LINE
  5
12C
330
1F
100
AcDbEntity
  8
0
  6
Continuous
 62
     7
100
AcDbLine
 10
977.139569933309
 20
-444.6973863155125
 30
0.0
 11
973.9895699333091
 21
-444.6973863155125
 31
0.0
  0
LINE
  5
12D
330
1F
100
AcDbEntity
  8
0
  6
Continuous
 62
     7
100
AcDbLine
 10
973.1145699333091
 20
-442.1973863155125
 30
0.0
 11
973.9895699333091
 21
-442.1973863155125
 31
0.0
  0
LINE
  5
12E
330
1F
100
AcDbEntity
  8
0
  6
Continuous
 62
     7
100
AcDbLine
 10
973.9895699333091
 20
-442.1973863155125
 30
0.0
 11
973.9895699333091
 21
-442.6973863155125
 31
0.0
  0
LINE
  5
12F
330
1F
100
AcDbEntity
  8
0
  6
Continuous
 62
     7
100
AcDbLine
 10
973.9895699333091
 20
-442.6973863155125
 30
0.0
 11
973.9895699333091
 21
-444.0503387027562
 31
0.0
  0
LINE
  5
130
330
1F
100
AcDbEntity
  8
0
  6
Continuous
 62
     2
100
AcDbLine
 10
961.2395699333091
 20
-440.6641436328997
 30
0.0
 11
966.714569933309
 21
-440.6641436328997
 31
0.0
  0
LINE
  5
131
330
1F
100
AcDbEntity
  8
0
  6
Continuous
 62
     2
100
AcDbLine
 10
946.7044067620119
 20
-440.6641436328997
 30
0.0
 11
952.764569933309
 21
-440.6641436328997
 31
0.0
  0
LINE
  5
132
330
1F
100
AcDbEntity
  8
0
  6
Continuous
 62
     2
100
AcDbLine
 10
952.764569933309
 20
-439.9306289981252
 30
0.0
 11
952.764569933309
 21
-440.6641436328997
 31
0.0
  0
LINE
  5
133
330
1F
100
AcDbEntity
  8
0
  6
Continuous
 62
     2
100
AcDbLine
 10
952.764569933309
 20
-439.9306289981252
 30
0.0
 11
958.2395699333091
 21
-439.9306289981252
 31
0.0
  0
LINE
  5
134
330
1F
100
AcDbEntity
  8
0
  6
Continuous
 62
     2
100
AcDbLine
 10
961.2395699333091
 20
-439.9306289981252
 30
0.0
 11
966.714569933309
 21
-439.9306289981252
 31
0.0
  0
LINE
  5
135
330
1F
100
AcDbEntity
  8
0
  6
Continuous
 62
     2
100
AcDbLine
 10
952.764569933309
 20
-441.1973863155125
 30
0.0
 11
952.764569933309
 21
-440.8306289981253
 31
0.0
  0
LINE
  5
136
330
1F
100
AcDbEntity
  8
0
  6
Continuous
 62
     2
100
AcDbLine
 10
952.764569933309
 20
-440.8306289981253
 30
0.0
 11
952.764569933309
 21
-440.6641436328997
 31
0.0
  0
LINE
  5
137
330
1F
100
AcDbEntity
  8
0
  6
Continuous
 62
     2
100
AcDbLine
 10
952.764569933309
 20
-441.1973863155125
 30
0.0
 11
958.2395699333091
 21
-441.1973863155125
 31
0.0
  0
LINE
  5
138
330
1F
100
AcDbEntity
  8
0
  6
Continuous
 62
     2
100
AcDbLine
 10
952.764569933309
 20
-440.6641436328997
 30
0.0
 11
958.2395699333091
 21
-440.6641436328997
 31
0.0
  0
LINE
  5
139
330
1F
100
AcDbEntity
  8
0
  6
Continuous
 62
     2
100
AcDbLine
 10
961.2395699333091
 20
-441.1973863155125
 30
0.0
 11
961.2395699333091
 21
-440.6641436328997
 31
0.0
  0
LINE
  5
13A
330
1F
100
AcDbEntity
  8
0
  6
Continuous
 62
     2
100
AcDbLine
 10
961.2395699333091
 20
-439.9306289981252
 30
0.0
 11
961.2395699333091
 21
-439.7641436328997
 31
0.0
  0
LINE
  5
13B
330
1F
100
AcDbEntity
  8
0
  6
Continuous
 62
     2
100
AcDbLine
 10
961.2395699333091
 20
-439.7641436328997
 30
0.0
 11
961.2395699333091
 21
-439.0306289981253
 31
0.0
  0
LINE
  5
13C
330
1F
100
AcDbEntity
  8
0
  6
Continuous
 62
     2
100
AcDbLine
 10
961.2395699333091
 20
-440.6641436328997
 30
0.0
 11
961.2395699333091
 21
-439.9306289981252
 31
0.0
  0
LINE
  5
13D
330
1F
100
AcDbEntity
  8
0
  6
Continuous
 62
     2
100
AcDbLine
 10
961.2395699333091
 20
-441.1973863155125
 30
0.0
 11
966.714569933309
 21
-441.1973863155125
 31
0.0
  0
LINE
  5
13E
330
1F
100
AcDbEntity
  8
0
  6
Continuous
 62
     2
100
AcDbLine
 10
958.2395699333091
 20
-440.6641436328997
 30
0.0
 11
958.2395699333091
 21
-441.1973863155125
 31
0.0
  0
LINE
  5
13F
330
1F
100
AcDbEntity
  8
0
  6
Continuous
 62
     2
100
AcDbLine
 10
958.2395699333091
 20
-439.7641436328997
 30
0.0
 11
958.2395699333091
 21
-439.9306289981252
 31
0.0
  0
LINE
  5
140
330
1F
100
AcDbEntity
  8
0
  6
Continuous
 62
     2
100
AcDbLine
 10
958.2395699333091
 20
-439.0306289981253
 30
0.0
 11
958.2395699333091
 21
-439.7641436328997
 31
0.0
  0
LINE
  5
141
330
1F
100
AcDbEntity
  8
0
  6
Continuous
 62
     2
100
AcDbLine
 10
958.2395699333091
 20
-439.9306289981252
 30
0.0
 11
958.2395699333091
 21
-440.6641436328997
 31
0.0
  0
LINE
  5
142
330
1F
100
AcDbEntity
  8
0
  6
Continuous
 62
     2
100
AcDbLine
 10
958.2395699333091
 20
-438.1306289981253
 30
0.0
 11
958.2395699333091
 21
-438.8641436328996
 31
0.0
  0
LINE
  5
143
330
1F
100
AcDbEntity
  8
0
  6
Continuous
 62
     7
100
AcDbLine
 10
946.7044067620119
 20
-438.1306289981253
 30
0.0
 11
946.5247331046061
 21
-437.9641436328997
 31
0.0
  0
LINE
  5
144
330
1F
100
AcDbEntity
  8
0
  6
Continuous
 62
     2
100
AcDbLine
 10
946.7044067620119
 20
-438.1306289981253
 30
0.0
 11
952.764569933309
 21
-438.1306289981253
 31
0.0
  0
LINE
  5
145
330
1F
100
AcDbEntity
  8
0
  6
Continuous
 62
     2
100
AcDbLine
 10
961.2395699333091
 20
-439.0306289981253
 30
0.0
 11
961.2395699333091
 21
-438.8641436328996
 31
0.0
  0
LINE
  5
146
330
1F
100
AcDbEntity
  8
0
  6
Continuous
 62
     2
100
AcDbLine
 10
958.2395699333091
 20
-438.8641436328996
 30
0.0
 11
958.2395699333091
 21
-439.0306289981253
 31
0.0
  0
LINE
  5
147
330
1F
100
AcDbEntity
  8
0
  6
Continuous
 62
     2
100
AcDbLine
 10
952.764569933309
 20
-438.8641436328996
 30
0.0
 11
958.2395699333091
 21
-438.8641436328996
 31
0.0
  0
LINE
  5
148
330
1F
100
AcDbEntity
  8
0
  6
Continuous
 62
     2
100
AcDbLine
 10
946.7044067620119
 20
-438.8641436328996
 30
0.0
 11
952.764569933309
 21
-438.8641436328996
 31
0.0
  0
LINE
  5
149
330
1F
100
AcDbEntity
  8
0
  6
Continuous
 62
     2
100
AcDbLine
 10
961.2395699333091
 20
-438.8641436328996
 30
0.0
 11
966.714569933309
 21
-438.8641436328996
 31
0.0
  0
LINE
  5
14A
330
1F
100
AcDbEntity
  8
0
  6
Continuous
 62
     7
100
AcDbLine
 10
946.7044067620119
 20
-438.8641436328996
 30
0.0
 11
946.5247331046061
 21
-439.0306289981253
 31
0.0
  0
LINE
  5
14B
330
1F
100
AcDbEntity
  8
0
  6
Continuous
 62
     7
100
AcDbLine
 10
946.7044067620119
 20
-440.6641436328997
 30
0.0
 11
946.5247331046061
 21
-440.8306289981253
 31
0.0
  0
LINE
  5
14C
330
1F
100
AcDbEntity
  8
0
  6
Continuous
 62
     7
100
AcDbLine
 10
977.139569933309
 20
-444.6973863155125
 30
0.0
 11
977.139569933309
 21
-442.6973863155125
 31
0.0
  0
LINE
  5
14D
330
1F
100
AcDbEntity
  8
0
  6
Continuous
 62
     7
100
AcDbLine
 10
956.536399487955
 20
-399.1973863155125
 30
0.0
 11
962.9427403786871
 21
-399.1973863155125
 31
0.0
  0
LINE
  5
14E
330
1F
100
AcDbEntity
  8
0
  6
Continuous
 62
     2
100
AcDbLine
 10
952.764569933309
 20
-439.9306289981252
 30
0.0
 11
952.764569933309
 21
-439.7641436328997
 31
0.0
  0
LINE
  5
14F
330
1F
100
AcDbEntity
  8
0
  6
Continuous
 62
     2
100
AcDbLine
 10
952.764569933309
 20
-438.1306289981253
 30
0.0
 11
952.764569933309
 21
-437.9641436328997
 31
0.0
  0
LINE
  5
150
330
1F
100
AcDbEntity
  8
0
  6
Continuous
 62
     2
100
AcDbLine
 10
952.764569933309
 20
-438.1306289981253
 30
0.0
 11
952.764569933309
 21
-438.8641436328996
 31
0.0
  0
LINE
  5
151
330
1F
100
AcDbEntity
  8
0
  6
Continuous
 62
     7
100
AcDbLine
 10
952.764569933309
 20
-425.1973863155124
 30
0.0
 11
966.714569933309
 21
-425.1973863155124
 31
0.0
  0
LINE
  5
152
330
1F
100
AcDbEntity
  8
0
  6
Continuous
 62
     7
100
AcDbLine
 10
948.4895699333091
 20
-425.1973863155125
 30
0.0
 11
949.263419531006
 21
-425.1973863155125
 31
0.0
  0
LINE
  5
153
330
1F
100
AcDbEntity
  8
0
  6
Continuous
 62
     2
100
AcDbLine
 10
952.764569933309
 20
-436.3306289981253
 30
0.0
 11
952.764569933309
 21
-436.1641436328997
 31
0.0
  0
LINE
  5
154
330
1F
100
AcDbEntity
  8
0
  6
Continuous
 62
     2
100
AcDbLine
 10
952.764569933309
 20
-435.4306289981252
 30
0.0
 11
952.764569933309
 21
-435.2641436328997
 31
0.0
  0
LINE
  5
155
330
1F
100
AcDbEntity
  8
0
  6
Continuous
 62
     2
100
AcDbLine
 10
952.764569933309
 20
-436.1641436328997
 30
0.0
 11
952.764569933309
 21
-435.4306289981252
 31
0.0
  0
LINE
  5
156
330
1F
100
AcDbEntity
  8
0
  6
Continuous
 62
     2
100
AcDbLine
 10
946.7044067620119
 20
-437.0641436328996
 30
0.0
 11
952.764569933309
 21
-437.0641436328996
 31
0.0
  0
LINE
  5
157
330
1F
100
AcDbEntity
  8
0
  6
Continuous
 62
     2
100
AcDbLine
 10
946.7044067620119
 20
-436.3306289981253
 30
0.0
 11
952.764569933309
 21
-436.3306289981253
 31
0.0
  0
LINE
  5
158
330
1F
100
AcDbEntity
  8
0
  6
Continuous
 62
     2
100
AcDbLine
 10
946.7044067620119
 20
-434.5306289981253
 30
0.0
 11
952.764569933309
 21
-434.5306289981253
 31
0.0
  0
LINE
  5
159
330
1F
100
AcDbEntity
  8
0
  6
Continuous
 62
     2
100
AcDbLine
 10
946.7044067620119
 20
-435.2641436328997
 30
0.0
 11
952.764569933309
 21
-435.2641436328997
 31
0.0
  0
LINE
  5
15A
330
1F
100
AcDbEntity
  8
0
  6
Continuous
 62
     2
100
AcDbLine
 10
952.764569933309
 20
-437.9641436328997
 30
0.0
 11
952.764569933309
 21
-437.2306289981253
 31
0.0
  0
LINE
  5
15B
330
1F
100
AcDbEntity
  8
0
  6
Continuous
 62
     2
100
AcDbLine
 10
952.764569933309
 20
-436.3306289981253
 30
0.0
 11
952.764569933309
 21
-437.0641436328996
 31
0.0
  0
LINE
  5
15C
330
1F
100
AcDbEntity
  8
0
  6
Continuous
 62
     2
100
AcDbLine
 10
952.764569933309
 20
-437.2306289981253
 30
0.0
 11
952.764569933309
 21
-437.0641436328996
 31
0.0
  0
LINE
  5
15D
330
1F
100
AcDbEntity
  8
0
  6
Continuous
 62
     7
100
AcDbLine
 10
946.3645699333091
 20
-425.1973863155125
 30
0.0
 11
946.289569933309
 21
-425.1973863155125
 31
0.0
  0
LINE
  5
15E
330
1F
100
AcDbEntity
  8
0
  6
Continuous
 62
     7
100
AcDbLine
 10
948.4895699333091
 20
-425.1973863155125
 30
0.0
 11
946.3645699333091
 21
-425.1973863155125
 31
0.0
  0
LINE
  5
15F
330
1F
100
AcDbEntity
  8
0
  6
Continuous
 62
     2
100
AcDbLine
 10
946.3645699333091
 20
-433.9973863155125
 30
0.0
 11
952.764569933309
 21
-433.9973863155125
 31
0.0
  0
LINE
  5
160
330
1F
100
AcDbEntity
  8
0
  6
Continuous
 62
     7
100
AcDbLine
 10
946.3645699333091
 20
-425.1973863155125
 30
0.0
 11
946.3645699333091
 21
-433.9973863155125
 31
0.0
  0
LINE
  5
161
330
1F
100
AcDbEntity
  8
0
  6
Continuous
 62
     7
100
AcDbLine
 10
946.7044067620119
 20
-437.0641436328996
 30
0.0
 11
946.5247331046061
 21
-437.2306289981253
 31
0.0
  0
LINE
  5
162
330
1F
100
AcDbEntity
  8
0
  6
Continuous
 62
     7
100
AcDbLine
 10
946.7044067620119
 20
-436.3306289981253
 30
0.0
 11
946.5247331046061
 21
-436.1641436328997
 31
0.0
  0
LINE
  5
163
330
1F
100
AcDbEntity
  8
0
  6
Continuous
 62
     7
100
AcDbLine
 10
946.7044067620119
 20
-434.5306289981253
 30
0.0
 11
946.5247331046061
 21
-434.3641436328996
 31
0.0
  0
LINE
  5
164
330
1F
100
AcDbEntity
  8
0
  6
Continuous
 62
     7
100
AcDbLine
 10
946.7044067620119
 20
-435.2641436328997
 30
0.0
 11
946.5247331046061
 21
-435.4306289981252
 31
0.0
  0
LINE
  5
165
330
1F
100
AcDbEntity
  8
0
  6
Continuous
 62
     7
100
AcDbLine
 10
942.339569933309
 20
-442.6973863155125
 30
0.0
 11
942.339569933309
 21
-444.6973863155125
 31
0.0
  0
LINE
  5
166
330
1F
100
AcDbEntity
  8
0
  6
Continuous
 62
     7
100
AcDbLine
 10
945.4895699333091
 20
-442.6973863155125
 30
0.0
 11
942.339569933309
 21
-442.6973863155125
 31
0.0
  0
LINE
  5
167
330
1F
100
AcDbEntity
  8
0
  6
Continuous
 62
     7
100
AcDbLine
 10
945.4895699333091
 20
-442.6973863155125
 30
0.0
 11
945.4895699333091
 21
-442.1973863155125
 31
0.0
  0
LINE
  5
168
330
1F
100
AcDbEntity
  8
0
  6
Continuous
 62
     7
100
AcDbLine
 10
945.4895699333091
 20
-444.0503387027562
 30
0.0
 11
945.4895699333091
 21
-442.6973863155125
 31
0.0
  0
LINE
  5
169
330
1F
100
AcDbEntity
  8
0
  6
Continuous
 62
     7
100
AcDbLine
 10
945.4895699333091
 20
-444.6973863155125
 30
0.0
 11
942.339569933309
 21
-444.6973863155125
 31
0.0
  0
LINE
  5
16A
330
1F
100
AcDbEntity
  8
0
  6
Continuous
 62
     7
100
AcDbLine
 10
945.4895699333091
 20
-442.1973863155125
 30
0.0
 11
946.3645699333091
 21
-442.1973863155125
 31
0.0
  0
LINE
  5
16B
330
1F
100
AcDbEntity
  8
0
  6
Continuous
 62
     7
100
AcDbLine
 10
946.7044067620119
 20
-439.9306289981252
 30
0.0
 11
946.5247331046061
 21
-439.7641436328997
 31
0.0
  0
LINE
  5
16C
330
1F
100
AcDbEntity
  8
0
  6
Continuous
 62
     2
100
AcDbLine
 10
946.3645699333091
 20
-441.1973863155125
 30
0.0
 11
952.764569933309
 21
-441.1973863155125
 31
0.0
  0
LINE
  5
16D
330
1F
100
AcDbEntity
  8
0
  6
Continuous
 62
     2
100
AcDbLine
 10
952.764569933309
 20
-439.0306289981253
 30
0.0
 11
952.764569933309
 21
-438.8641436328996
 31
0.0
  0
LINE
  5
16E
330
1F
100
AcDbEntity
  8
0
  6
Continuous
 62
     2
100
AcDbLine
 10
952.764569933309
 20
-439.7641436328997
 30
0.0
 11
952.764569933309
 21
-439.0306289981253
 31
0.0
  0
LINE
  5
16F
330
1F
100
AcDbEntity
  8
0
  6
Continuous
 62
     7
100
AcDbLine
 10
946.3645699333091
 20
-441.1973863155125
 30
0.0
 11
946.3645699333091
 21
-442.1973863155125
 31
0.0
  0
LINE
  5
170
330
1F
100
AcDbEntity
  8
0
  6
Continuous
 62
     2
100
AcDbLine
 10
946.7044067620119
 20
-439.9306289981252
 30
0.0
 11
952.764569933309
 21
-439.9306289981252
 31
0.0
  0
LINE
  5
171
330
1F
100
AcDbEntity
  8
0
  6
Continuous
 62
     7
100
AcDbLine
 10
944.7395699333091
 20
-403.4473863155125
 30
0.0
 11
945.4895699333091
 21
-404.1973863155125
 31
0.0
  0
LINE
  5
172
330
1F
100
AcDbEntity
  8
0
  6
Continuous
 62
     7
100
AcDbLine
 10
974.7395699333091
 20
-403.4473863155125
 30
0.0
 11
974.7395699333091
 21
-399.6973863155125
 31
0.0
  0
LINE
  5
173
330
1F
100
AcDbEntity
  8
0
  6
Continuous
 62
     7
100
AcDbLine
 10
973.9895699333091
 20
-404.1973863155125
 30
0.0
 11
973.9895699333091
 21
-402.1973863155125
 31
0.0
  0
LINE
  5
174
330
1F
100
AcDbEntity
  8
0
  6
Continuous
 62
     7
100
AcDbLine
 10
973.9895699333091
 20
-424.3973863155125
 30
0.0
 11
973.9895699333091
 21
-420.1973863155125
 31
0.0
  0
LINE
  5
175
330
1F
100
AcDbEntity
  8
0
  6
Continuous
 62
     2
100
AcDbLine
 10
972.7747331046061
 20
-439.9306289981252
 30
0.0
 11
966.714569933309
 21
-439.9306289981252
 31
0.0
  0
LINE
  5
176
330
1F
100
AcDbEntity
  8
0
  6
Continuous
 62
     2
100
AcDbLine
 10
966.714569933309
 20
-441.1973863155125
 30
0.0
 11
973.1145699333091
 21
-441.1973863155125
 31
0.0
  0
LINE
  5
177
330
1F
100
AcDbEntity
  8
0
  6
Continuous
 62
     7
100
AcDbLine
 10
972.7747331046061
 20
-439.9306289981252
 30
0.0
 11
972.9544067620119
 21
-439.7641436328997
 31
0.0
  0
LINE
  5
178
330
1F
100
AcDbEntity
  8
0
  6
Continuous
 62
     7
100
AcDbLine
 10
972.9895699333091
 20
-419.1973863155126
 30
0.0
 11
973.9895699333091
 21
-420.1973863155125
 31
0.0
  0
LINE
  5
179
330
1F
100
AcDbEntity
  8
0
  6
Continuous
 62
     7
100
AcDbLine
 10
972.9895699333091
 20
-405.1973863155125
 30
0.0
 11
973.9895699333091
 21
-404.1973863155125
 31
0.0
  0
LINE
  5
17A
330
1F
100
AcDbEntity
  8
0
  6
Continuous
 62
     7
100
AcDbLine
 10
973.9895699333091
 20
-404.1973863155125
 30
0.0
 11
974.7395699333091
 21
-403.4473863155125
 31
0.0
  0
LINE
  5
17B
330
1F
100
AcDbEntity
  8
0
  6
Continuous
 62
     7
100
AcDbLine
 10
972.8933175807889
 20
-399.1973863155125
 30
0.0
 11
974.2395699333091
 21
-399.1973863155125
 31
0.0
  0
LINE
  5
17C
330
1F
100
AcDbEntity
  8
0
  6
Continuous
 62
     7
100
AcDbLine
 10
973.1145699333091
 20
-448.1973863155124
 30
0.0
 11
966.714569933309
 21
-448.1973863155124
 31
0.0
  0
LINE
  5
17D
330
1F
100
AcDbEntity
  8
0
  6
Continuous
 62
     7
100
AcDbLine
 10
966.589569933309
 20
-453.1973863155124
 30
0.0
 11
952.889569933309
 21
-453.1973863155124
 31
0.0
  0
LINE
  5
17E
330
1F
100
AcDbEntity
  8
0
  6
Continuous
 62
     7
100
AcDbLine
 10
966.589569933309
 20
-448.1973863155124
 30
0.0
 11
952.889569933309
 21
-448.1973863155124
 31
0.0
  0
LINE
  5
17F
330
1F
100
AcDbEntity
  8
0
  6
Continuous
 62
     7
100
AcDbLine
 10
973.9895699333091
 20
-444.6973863155125
 30
0.0
 11
973.9895699333091
 21
-448.1973863155124
 31
0.0
  0
LINE
  5
180
330
1F
100
AcDbEntity
  8
0
  6
Continuous
 62
     7
100
AcDbLine
 10
973.9895699333091
 20
-453.1973863155124
 30
0.0
 11
973.9895699333091
 21
-448.1973863155124
 31
0.0
  0
LINE
  5
181
330
1F
100
AcDbEntity
  8
0
  6
Continuous
 62
     7
100
AcDbLine
 10
973.9895699333091
 20
-453.1973863155124
 30
0.0
 11
966.589569933309
 21
-453.1973863155124
 31
0.0
  0
LINE
  5
182
330
1F
100
AcDbEntity
  8
0
  6
Continuous
 62
     7
100
AcDbLine
 10
973.9895699333091
 20
-448.1973863155124
 30
0.0
 11
973.1145699333091
 21
-448.1973863155124
 31
0.0
  0
LINE
  5
183
330
1F
100
AcDbEntity
  8
0
  6
Continuous
 62
     7
100
AcDbLine
 10
952.889569933309
 20
-448.1973863155124
 30
0.0
 11
952.764569933309
 21
-448.1973863155124
 31
0.0
  0
LINE
  5
184
330
1F
100
AcDbEntity
  8
0
  6
Continuous
 62
     7
100
AcDbLine
 10
945.4895699333091
 20
-453.1973863155124
 30
0.0
 11
945.4895699333091
 21
-448.1973863155124
 31
0.0
  0
LINE
  5
185
330
1F
100
AcDbEntity
  8
0
  6
Continuous
 62
     7
100
AcDbLine
 10
952.889569933309
 20
-453.1973863155124
 30
0.0
 11
945.4895699333091
 21
-453.1973863155124
 31
0.0
  0
LINE
  5
186
330
1F
100
AcDbEntity
  8
0
  6
Continuous
 62
     7
100
AcDbLine
 10
945.4895699333091
 20
-448.1973863155124
 30
0.0
 11
945.4895699333091
 21
-444.6973863155125
 31
0.0
  0
LINE
  5
187
330
1F
100
AcDbEntity
  8
0
  6
Continuous
 62
     7
100
AcDbLine
 10
945.4895699333091
 20
-444.6973863155125
 30
0.0
 11
945.4895699333091
 21
-444.0503387027562
 31
0.0
  0
LINE
  5
188
330
1F
100
AcDbEntity
  8
0
  6
Continuous
 62
     7
100
AcDbLine
 10
973.9895699333091
 20
-448.1973863155124
 30
0.0
 11
977.139569933309
 21
-444.6973863155125
 31
0.0
  0
LINE
  5
189
330
1F
100
AcDbEntity
  8
0
  6
Continuous
 62
     7
100
AcDbLine
 10
942.339569933309
 20
-444.6973863155125
 30
0.0
 11
945.4895699333091
 21
-448.1973863155124
 31
0.0
  0
LINE
  5
18A
330
1F
100
AcDbEntity
  8
0
  6
Continuous
 62
     7
100
AcDbLine
 10
945.2395699333091
 20
-399.1973863155125
 30
0.0
 11
946.5858222858291
 21
-399.1973863155125
 31
0.0
  0
LINE
  5
18B
330
1F
100
AcDbEntity
  8
0
  6
Continuous
 62
     7
100
AcDbLine
 10
946.5858222858291
 20
-399.1973863155125
 30
0.0
 11
948.4895699333091
 21
-399.1973863155125
 31
0.0
  0
LINE
  5
18C
330
1F
100
AcDbEntity
  8
0
  6
Continuous
 62
     7
100
AcDbLine
 10
944.7395699333091
 20
-403.4473863155125
 30
0.0
 11
944.7395699333091
 21
-399.6973863155125
 31
0.0
  0
LINE
  5
18D
330
1F
100
AcDbEntity
  8
0
  6
Continuous
 62
     7
100
AcDbLine
 10
948.4895699333091
 20
-399.1973863155125
 30
0.0
 11
956.536399487955
 21
-399.1973863155125
 31
0.0
  0
LINE
  5
18E
330
1F
100
AcDbEntity
  8
0
  6
Continuous
 62
     2
100
AcDbLine
 10
948.4895699333091
 20
-401.4209291802048
 30
0.0
 11
948.4895699333091
 21
-399.1973863155125
 31
0.0
  0
LINE
  5
18F
330
1F
100
AcDbEntity
  8
0
  6
Continuous
 62
     7
100
AcDbLine
 10
945.4895699333091
 20
-404.1973863155125
 30
0.0
 11
946.4895699333091
 21
-405.1973863155125
 31
0.0
  0
LINE
  5
190
330
1F
100
AcDbEntity
  8
0
  6
Continuous
 62
     7
100
AcDbLine
 10
945.4895699333091
 20
-420.1973863155125
 30
0.0
 11
946.4895699333091
 21
-419.1973863155125
 31
0.0
  0
LINE
  5
191
330
1F
100
AcDbEntity
  8
0
  6
Continuous
 62
     7
100
AcDbLine
 10
945.4895699333091
 20
-420.1973863155125
 30
0.0
 11
945.4895699333091
 21
-424.3973863155125
 31
0.0
  0
LINE
  5
192
330
1F
100
AcDbEntity
  8
0
  6
Continuous
 62
     7
100
AcDbLine
 10
946.4895699333091
 20
-405.1973863155125
 30
0.0
 11
946.4895699333091
 21
-419.1973863155125
 31
0.0
  0
LINE
  5
193
330
1F
100
AcDbEntity
  8
0
  6
Continuous
 62
     7
100
AcDbLine
 10
945.4895699333091
 20
-402.1973863155125
 30
0.0
 11
945.4895699333091
 21
-404.1973863155125
 31
0.0
  0
LINE
  5
194
330
1F
100
AcDbEntity
  8
0
  6
Continuous
 62
     2
100
AcDbLine
 10
948.4895699333091
 20
-401.4209291802048
 30
0.0
 11
948.4895699333091
 21
-424.1903310794305
 31
0.0
  0
LINE
  5
195
330
1F
100
AcDbEntity
  8
0
  6
Continuous
 62
     2
100
AcDbLine
 10
950.925783940631
 20
-424.1903310794305
 30
0.0
 11
948.4895699333091
 21
-424.1903310794305
 31
0.0
  0
LINE
  5
196
330
1F
100
AcDbEntity
  8
0
  6
Continuous
 62
     2
100
AcDbLine
 10
952.764569933309
 20
-434.3641436328996
 30
0.0
 11
952.764569933309
 21
-433.9973863155125
 31
0.0
  0
LINE
  5
197
330
1F
100
AcDbEntity
  8
0
  6
Continuous
 62
     2
100
AcDbLine
 10
961.2395699333091
 20
-438.1306289981253
 30
0.0
 11
966.714569933309
 21
-438.1306289981253
 31
0.0
  0
LINE
  5
198
330
1F
100
AcDbEntity
  8
0
  6
Continuous
 62
     2
100
AcDbLine
 10
958.2395699333091
 20
-437.9641436328997
 30
0.0
 11
958.2395699333091
 21
-438.1306289981253
 31
0.0
  0
LINE
  5
199
330
1F
100
AcDbEntity
  8
0
  6
Continuous
 62
     2
100
AcDbLine
 10
952.764569933309
 20
-438.1306289981253
 30
0.0
 11
958.2395699333091
 21
-438.1306289981253
 31
0.0
  0
LINE
  5
19A
330
1F
100
AcDbEntity
  8
0
  6
Continuous
 62
     2
100
AcDbLine
 10
958.2395699333091
 20
-437.2306289981253
 30
0.0
 11
958.2395699333091
 21
-437.9641436328997
 31
0.0
  0
LINE
  5
19B
330
1F
100
AcDbEntity
  8
0
  6
Continuous
 62
     2
100
AcDbLine
 10
961.2395699333091
 20
-438.1306289981253
 30
0.0
 11
961.2395699333091
 21
-437.9641436328997
 31
0.0
  0
LINE
  5
19C
330
1F
100
AcDbEntity
  8
0
  6
Continuous
 62
     2
100
AcDbLine
 10
961.2395699333091
 20
-437.9641436328997
 30
0.0
 11
961.2395699333091
 21
-437.2306289981253
 31
0.0
  0
LINE
  5
19D
330
1F
100
AcDbEntity
  8
0
  6
Continuous
 62
     2
100
AcDbLine
 10
961.2395699333091
 20
-438.8641436328996
 30
0.0
 11
961.2395699333091
 21
-438.1306289981253
 31
0.0
  0
LINE
  5
19E
330
1F
100
AcDbEntity
  8
0
  6
Continuous
 62
     2
100
AcDbLine
 10
958.2395699333091
 20
-437.0641436328996
 30
0.0
 11
958.2395699333091
 21
-437.2306289981253
 31
0.0
  0
LINE
  5
19F
330
1F
100
AcDbEntity
  8
0
  6
Continuous
 62
     2
100
AcDbLine
 10
961.2395699333091
 20
-437.2306289981253
 30
0.0
 11
961.2395699333091
 21
-437.0641436328996
 31
0.0
  0
LINE
  5
1A0
330
1F
100
AcDbEntity
  8
0
  6
Continuous
 62
     2
100
AcDbLine
 10
958.2395699333091
 20
-436.1641436328997
 30
0.0
 11
958.2395699333091
 21
-436.3306289981253
 31
0.0
  0
LINE
  5
1A1
330
1F
100
AcDbEntity
  8
0
  6
Continuous
 62
     2
100
AcDbLine
 10
958.2395699333091
 20
-436.3306289981253
 30
0.0
 11
958.2395699333091
 21
-437.0641436328996
 31
0.0
  0
LINE
  5
1A2
330
1F
100
AcDbEntity
  8
0
  6
Continuous
 62
     2
100
AcDbLine
 10
952.764569933309
 20
-437.0641436328996
 30
0.0
 11
958.2395699333091
 21
-437.0641436328996
 31
0.0
  0
LINE
  5
1A3
330
1F
100
AcDbEntity
  8
0
  6
Continuous
 62
     2
100
AcDbLine
 10
952.764569933309
 20
-433.9973863155125
 30
0.0
 11
958.2395699333091
 21
-433.9973863155125
 31
0.0
  0
LINE
  5
1A4
330
1F
100
AcDbEntity
  8
0
  6
Continuous
 62
     2
100
AcDbLine
 10
958.2395699333091
 20
-435.4306289981252
 30
0.0
 11
958.2395699333091
 21
-436.1641436328997
 31
0.0
  0
LINE
  5
1A5
330
1F
100
AcDbEntity
  8
0
  6
Continuous
 62
     2
100
AcDbLine
 10
961.2395699333091
 20
-437.0641436328996
 30
0.0
 11
961.2395699333091
 21
-436.3306289981253
 31
0.0
  0
LINE
  5
1A6
330
1F
100
AcDbEntity
  8
0
  6
Continuous
 62
     2
100
AcDbLine
 10
961.2395699333091
 20
-436.3306289981253
 30
0.0
 11
961.2395699333091
 21
-436.1641436328997
 31
0.0
  0
LINE
  5
1A7
330
1F
100
AcDbEntity
  8
0
  6
Continuous
 62
     2
100
AcDbLine
 10
961.2395699333091
 20
-436.1641436328997
 30
0.0
 11
961.2395699333091
 21
-435.4306289981252
 31
0.0
  0
LINE
  5
1A8
330
1F
100
AcDbEntity
  8
0
  6
Continuous
 62
     2
100
AcDbLine
 10
961.2395699333091
 20
-433.9973863155125
 30
0.0
 11
966.714569933309
 21
-433.9973863155125
 31
0.0
  0
LINE
  5
1A9
330
1F
100
AcDbEntity
  8
0
  6
Continuous
 62
     2
100
AcDbLine
 10
961.2395699333091
 20
-436.3306289981253
 30
0.0
 11
966.714569933309
 21
-436.3306289981253
 31
0.0
  0
LINE
  5
1AA
330
1F
100
AcDbEntity
  8
0
  6
Continuous
 62
     2
100
AcDbLine
 10
961.2395699333091
 20
-437.0641436328996
 30
0.0
 11
966.714569933309
 21
-437.0641436328996
 31
0.0
  0
LINE
  5
1AB
330
1F
100
AcDbEntity
  8
0
  6
Continuous
 62
     2
100
AcDbLine
 10
952.764569933309
 20
-436.3306289981253
 30
0.0
 11
958.2395699333091
 21
-436.3306289981253
 31
0.0
  0
LINE
  5
1AC
330
1F
100
AcDbEntity
  8
0
  6
Continuous
 62
     7
100
AcDbLine
 10
962.9427403786871
 20
-399.1973863155125
 30
0.0
 11
970.9895699333091
 21
-399.1973863155125
 31
0.0
  0
LINE
  5
1AD
330
1F
100
AcDbEntity
  8
0
  6
Continuous
 62
     7
100
AcDbLine
 10
973.1895699333089
 20
-425.1973863155125
 30
0.0
 11
973.1145699333091
 21
-425.1973863155125
 31
0.0
  0
LINE
  5
1AE
330
1F
100
AcDbEntity
  8
0
  6
Continuous
 62
     7
100
AcDbLine
 10
973.1145699333091
 20
-425.1973863155125
 30
0.0
 11
970.9895699333091
 21
-425.1973863155125
 31
0.0
  0
LINE
  5
1AF
330
1F
100
AcDbEntity
  8
0
  6
Continuous
 62
     7
100
AcDbLine
 10
973.1145699333091
 20
-425.1973863155125
 30
0.0
 11
973.1145699333091
 21
-433.9973863155125
 31
0.0
  0
LINE
  5
1B0
330
1F
100
AcDbEntity
  8
0
  6
Continuous
 62
     2
100
AcDbLine
 10
973.1145699333091
 20
-433.9973863155125
 30
0.0
 11
966.714569933309
 21
-433.9973863155125
 31
0.0
  0
LINE
  5
1B1
330
1F
100
AcDbEntity
  8
0
  6
Continuous
 62
     2
100
AcDbLine
 10
972.7747331046061
 20
-438.1306289981253
 30
0.0
 11
966.714569933309
 21
-438.1306289981253
 31
0.0
  0
LINE
  5
1B2
330
1F
100
AcDbEntity
  8
0
  6
Continuous
 62
     2
100
AcDbLine
 10
972.7747331046061
 20
-438.8641436328996
 30
0.0
 11
966.714569933309
 21
-438.8641436328996
 31
0.0
  0
LINE
  5
1B3
330
1F
100
AcDbEntity
  8
0
  6
Continuous
 62
     2
100
AcDbLine
 10
972.7747331046061
 20
-436.3306289981253
 30
0.0
 11
966.714569933309
 21
-436.3306289981253
 31
0.0
  0
LINE
  5
1B4
330
1F
100
AcDbEntity
  8
0
  6
Continuous
 62
     2
100
AcDbLine
 10
972.7747331046061
 20
-437.0641436328996
 30
0.0
 11
966.714569933309
 21
-437.0641436328996
 31
0.0
  0
LINE
  5
1B5
330
1F
100
AcDbEntity
  8
0
  6
Continuous
 62
     7
100
AcDbLine
 10
972.7747331046061
 20
-436.3306289981253
 30
0.0
 11
972.9544067620119
 21
-436.1641436328997
 31
0.0
  0
LINE
  5
1B6
330
1F
100
AcDbEntity
  8
0
  6
Continuous
 62
     2
100
AcDbLine
 10
972.7747331046061
 20
-435.2641436328997
 30
0.0
 11
966.714569933309
 21
-435.2641436328997
 31
0.0
  0
LINE
  5
1B7
330
1F
100
AcDbEntity
  8
0
  6
Continuous
 62
     2
100
AcDbLine
 10
972.7747331046061
 20
-434.5306289981253
 30
0.0
 11
966.714569933309
 21
-434.5306289981253
 31
0.0
  0
LINE
  5
1B8
330
1F
100
AcDbEntity
  8
0
  6
Continuous
 62
     7
100
AcDbLine
 10
972.7747331046061
 20
-434.5306289981253
 30
0.0
 11
972.9544067620119
 21
-434.3641436328996
 31
0.0
  0
LINE
  5
1B9
330
1F
100
AcDbEntity
  8
0
  6
Continuous
 62
     7
100
AcDbLine
 10
972.7747331046061
 20
-438.1306289981253
 30
0.0
 11
972.9544067620119
 21
-437.9641436328997
 31
0.0
  0
LINE
  5
1BA
330
1F
100
AcDbEntity
  8
0
  6
Continuous
 62
     7
100
AcDbLine
 10
972.7747331046061
 20
-440.6641436328997
 30
0.0
 11
972.9544067620119
 21
-440.8306289981253
 31
0.0
  0
LINE
  5
1BB
330
1F
100
AcDbEntity
  8
0
  6
Continuous
 62
     7
100
AcDbLine
 10
972.7747331046061
 20
-438.8641436328996
 30
0.0
 11
972.9544067620119
 21
-439.0306289981253
 31
0.0
  0
LINE
  5
1BC
330
1F
100
AcDbEntity
  8
0
  6
Continuous
 62
     7
100
AcDbLine
 10
972.7747331046061
 20
-437.0641436328996
 30
0.0
 11
972.9544067620119
 21
-437.2306289981253
 31
0.0
  0
LINE
  5
1BD
330
1F
100
AcDbEntity
  8
0
  6
Continuous
 62
     7
100
AcDbLine
 10
972.7747331046061
 20
-435.2641436328997
 30
0.0
 11
972.9544067620119
 21
-435.4306289981252
 31
0.0
  0
LINE
  5
1BE
330
1F
100
AcDbEntity
  8
0
  6
Continuous
 62
     2
100
AcDbLine
 10
972.7747331046061
 20
-440.6641436328997
 30
0.0
 11
966.714569933309
 21
-440.6641436328997
 31
0.0
  0
LINE
  5
1BF
330
1F
100
AcDbEntity
  8
0
  6
Continuous
 62
     7
100
AcDbLine
 10
972.9895699333091
 20
-419.1973863155126
 30
0.0
 11
972.9895699333091
 21
-405.1973863155125
 31
0.0
  0
LINE
  5
1C0
330
1F
100
AcDbEntity
  8
0
  6
Continuous
 62
     2
100
AcDbLine
 10
970.9895699333091
 20
-424.1903310794305
 30
0.0
 11
970.9895699333091
 21
-401.4209291802048
 31
0.0
  0
LINE
  5
1C1
330
1F
100
AcDbEntity
  8
0
  6
Continuous
 62
     7
100
AcDbLine
 10
970.9895699333091
 20
-425.1973863155125
 30
0.0
 11
970.215720335612
 21
-425.1973863155125
 31
0.0
  0
LINE
  5
1C2
330
1F
100
AcDbEntity
  8
0
  6
Continuous
 62
     2
100
AcDbLine
 10
970.9895699333091
 20
-424.1903310794305
 30
0.0
 11
968.553355925986
 21
-424.1903310794305
 31
0.0
  0
LINE
  5
1C3
330
1F
100
AcDbEntity
  8
0
  6
Continuous
 62
     2
100
AcDbLine
 10
970.9895699333091
 20
-401.4209291802048
 30
0.0
 11
970.9895699333091
 21
-399.1973863155125
 31
0.0
  0
LINE
  5
1C4
330
1F
100
AcDbEntity
  8
0
  6
Continuous
 62
     7
100
AcDbLine
 10
972.8933175807889
 20
-397.6973863155125
 30
0.0
 11
973.839569933309
 21
-397.6973863155125
 31
0.0
  0
LINE
  5
1C5
330
1F
100
AcDbEntity
  8
0
  6
Continuous
 62
     7
100
AcDbLine
 10
946.5858222858291
 20
-399.1973863155125
 30
0.0
 11
946.5858222858291
 21
-397.6973863155125
 31
0.0
  0
LINE
  5
1C6
330
1F
100
AcDbEntity
  8
0
  6
Continuous
 62
     7
100
AcDbLine
 10
945.639569933309
 20
-397.6973863155125
 30
0.0
 11
946.5858222858291
 21
-397.6973863155125
 31
0.0
  0
LINE
  5
1C7
330
1F
100
AcDbEntity
  8
0
  6
Continuous
 62
     7
100
AcDbLine
 10
972.8933175807889
 20
-399.1973863155125
 30
0.0
 11
972.8933175807889
 21
-397.6973863155125
 31
0.0
  0
LINE
  5
1C8
330
1F
100
AcDbEntity
  8
0
  6
Continuous
 62
     7
100
AcDbLine
 10
970.9895699333091
 20
-399.1973863155125
 30
0.0
 11
972.8933175807889
 21
-399.1973863155125
 31
0.0
  0
LINE
  5
1C9
330
1F
100
AcDbEntity
  8
0
  6
Continuous
 62
     2
100
AcDbLine
 10
970.9895699333091
 20
-401.4209291802048
 30
0.0
 11
948.4895699333091
 21
-401.4209291802048
 31
0.0
  0
LINE
  5
1CA
330
1F
100
AcDbEntity
  8
0
  6
Continuous
 62
     2
100
AcDbLine
 10
952.764569933309
 20
-435.2641436328997
 30
0.0
 11
958.2395699333091
 21
-435.2641436328997
 31
0.0
  0
LINE
  5
1CB
330
1F
100
AcDbEntity
  8
0
  6
Continuous
 62
     2
100
AcDbLine
 10
952.764569933309
 20
-434.5306289981253
 30
0.0
 11
958.2395699333091
 21
-434.5306289981253
 31
0.0
  0
LINE
  5
1CC
330
1F
100
AcDbEntity
  8
0
  6
Continuous
 62
     2
100
AcDbLine
 10
952.764569933309
 20
-434.5306289981253
 30
0.0
 11
952.764569933309
 21
-434.3641436328996
 31
0.0
  0
LINE
  5
1CD
330
1F
100
AcDbEntity
  8
0
  6
Continuous
 62
     2
100
AcDbLine
 10
952.764569933309
 20
-434.5306289981253
 30
0.0
 11
952.764569933309
 21
-435.2641436328997
 31
0.0
  0
LINE
  5
1CE
330
1F
100
AcDbEntity
  8
0
  6
Continuous
 62
     2
100
AcDbLine
 10
958.2395699333091
 20
-435.2641436328997
 30
0.0
 11
958.2395699333091
 21
-435.4306289981252
 31
0.0
  0
LINE
  5
1CF
330
1F
100
AcDbEntity
  8
0
  6
Continuous
 62
     2
100
AcDbLine
 10
958.2395699333091
 20
-433.9973863155125
 30
0.0
 11
958.2395699333091
 21
-434.5306289981253
 31
0.0
  0
LINE
  5
1D0
330
1F
100
AcDbEntity
  8
0
  6
Continuous
 62
     2
100
AcDbLine
 10
958.2395699333091
 20
-434.5306289981253
 30
0.0
 11
958.2395699333091
 21
-435.2641436328997
 31
0.0
  0
LINE
  5
1D1
330
1F
100
AcDbEntity
  8
0
  6
Continuous
 62
     2
100
AcDbLine
 10
961.2395699333091
 20
-434.5306289981253
 30
0.0
 11
961.2395699333091
 21
-433.9973863155125
 31
0.0
  0
LINE
  5
1D2
330
1F
100
AcDbEntity
  8
0
  6
Continuous
 62
     2
100
AcDbLine
 10
961.2395699333091
 20
-435.2641436328997
 30
0.0
 11
961.2395699333091
 21
-434.5306289981253
 31
0.0
  0
LINE
  5
1D3
330
1F
100
AcDbEntity
  8
0
  6
Continuous
 62
     2
100
AcDbLine
 10
961.2395699333091
 20
-435.4306289981252
 30
0.0
 11
961.2395699333091
 21
-435.2641436328997
 31
0.0
  0
LINE
  5
1D4
330
1F
100
AcDbEntity
  8
0
  6
Continuous
 62
     2
100
AcDbLine
 10
961.2395699333091
 20
-435.2641436328997
 30
0.0
 11
966.714569933309
 21
-435.2641436328997
 31
0.0
  0
LINE
  5
1D5
330
1F
100
AcDbEntity
  8
0
  6
Continuous
 62
     2
100
AcDbLine
 10
961.2395699333091
 20
-434.5306289981253
 30
0.0
 11
966.714569933309
 21
-434.5306289981253
 31
0.0
  0
LINE
  5
1D6
330
1F
100
AcDbEntity
  8
0
  6
Continuous
 62
     7
100
AcDbLine
 10
946.5858222858291
 20
-397.6973863155125
 30
0.0
 11
972.8933175807889
 21
-397.6973863155125
 31
0.0
  0
LINE
  5
1D7
330
1F
100
AcDbEntity
  8
1
  6
Continuous
 62
     7
100
AcDbLine
 10
946.4895699333091
 20
-419.1973863155125
 30
0.0
 11
946.389569933309
 21
-419.1973863155125
 31
0.0
  0
LINE
  5
1D8
330
1F
100
AcDbEntity
  8
1
  6
Continuous
 62
     7
100
AcDbLine
 10
946.4895699333091
 20
-405.1973863155125
 30
0.0
 11
946.389569933309
 21
-405.1973863155125
 31
0.0
  0
LINE
  5
1D9
330
1F
100
AcDbEntity
  8
1
  6
Continuous
 62
     7
100
AcDbLine
 10
825.56982459239
 20
-586.089631968033
 30
0.0
 11
1009.56982459239
 21
-586.089631968033
 31
0.0
  0
LINE
  5
1DA
330
1F
100
AcDbEntity
  8
1
  6
Continuous
 62
     7
100
AcDbLine
 10
825.56982459239
 20
-601.0896319680331
 30
0.0
 11
1009.56982459239
 21
-601.0896319680331
 31
0.0
  0
LINE
  5
1DB
330
1F
100
AcDbEntity
  8
1
  6
Continuous
 62
     7
100
AcDbLine
 10
850.5698245923901
 20
-571.089631968033
 30
0.0
 11
850.5698245923901
 21
-566.089631968033
 31
0.0
  0
LINE
  5
1DC
330
1F
100
AcDbEntity
  8
1
  6
Continuous
 62
     7
100
AcDbLine
 10
832.56982459239
 20
-571.089631968033
 30
0.0
 11
832.56982459239
 21
-566.089631968033
 31
0.0
  0
LINE
  5
1DD
330
1F
100
AcDbEntity
  8
1
  6
Continuous
 62
     7
100
AcDbLine
 10
825.56982459239
 20
-566.089631968033
 30
0.0
 11
1009.56982459239
 21
-566.089631968033
 31
0.0
  0
LINE
  5
1DE
330
1F
100
AcDbEntity
  8
1
  6
Continuous
 62
     7
100
AcDbLine
 10
850.5698245923901
 20
-576.089631968033
 30
0.0
 11
850.5698245923901
 21
-571.089631968033
 31
0.0
  0
LINE
  5
1DF
330
1F
100
AcDbEntity
  8
1
  6
Continuous
 62
     7
100
AcDbLine
 10
832.56982459239
 20
-576.089631968033
 30
0.0
 11
832.56982459239
 21
-571.089631968033
 31
0.0
  0
LINE
  5
1E0
330
1F
100
AcDbEntity
  8
1
  6
Continuous
 62
     7
100
AcDbLine
 10
825.56982459239
 20
-571.089631968033
 30
0.0
 11
1009.56982459239
 21
-571.089631968033
 31
0.0
  0
LINE
  5
1E1
330
1F
100
AcDbEntity
  8
1
  6
Continuous
 62
     7
100
AcDbLine
 10
850.5698245923901
 20
-581.089631968033
 30
0.0
 11
850.5698245923901
 21
-576.089631968033
 31
0.0
  0
LINE
  5
1E2
330
1F
100
AcDbEntity
  8
1
  6
Continuous
 62
     7
100
AcDbLine
 10
832.56982459239
 20
-581.089631968033
 30
0.0
 11
832.56982459239
 21
-576.089631968033
 31
0.0
  0
LINE
  5
1E3
330
1F
100
AcDbEntity
  8
1
  6
Continuous
 62
     7
100
AcDbLine
 10
825.56982459239
 20
-576.089631968033
 30
0.0
 11
1009.56982459239
 21
-576.089631968033
 31
0.0
  0
LINE
  5
1E4
330
1F
100
AcDbEntity
  8
1
  6
Continuous
 62
     7
100
AcDbLine
 10
850.5698245923901
 20
-586.089631968033
 30
0.0
 11
850.5698245923901
 21
-581.089631968033
 31
0.0
  0
LINE
  5
1E5
330
1F
100
AcDbEntity
  8
1
  6
Continuous
 62
     7
100
AcDbLine
 10
832.56982459239
 20
-586.089631968033
 30
0.0
 11
832.56982459239
 21
-581.089631968033
 31
0.0
  0
LINE
  5
1E6
330
1F
100
AcDbEntity
  8
1
  6
Continuous
 62
     7
100
AcDbLine
 10
825.56982459239
 20
-581.089631968033
 30
0.0
 11
1009.56982459239
 21
-581.089631968033
 31
0.0
  0
LINE
  5
1E7
102
{ACAD_REACTORS
330
2EA
102
}
330
1F
100
AcDbEntity
  8
1
  6
Continuous
 62
     7
100
AcDbLine
 10
1000.412699432296
 20
-595.5316298876527
 30
0.0
 11
999.0793660989625
 21
-596.3008606568833
 31
0.0
  0
LINE
  5
1E8
102
{ACAD_REACTORS
330
2EA
102
}
330
1F
100
AcDbEntity
  8
1
  6
Continuous
 62
     7
100
AcDbLine
 10
999.2461252811327
 20
-595.4349954353851
 30
0.0
 11
1000.079551129969
 21
-594.9541728302868
 31
0.0
  0
LINE
  5
1E9
102
{ACAD_REACTORS
330
2EA
102
}
330
1F
100
AcDbEntity
  8
1
  6
Continuous
 62
     7
100
AcDbLine
 10
999.2461252811327
 20
-593.9229653013664
 30
0.0
 11
999.2461252811327
 21
-595.4349954353851
 31
0.0
  0
LINE
  5
1EA
102
{ACAD_REACTORS
330
2EA
102
}
330
1F
100
AcDbEntity
  8
1
  6
Continuous
 62
     7
100
AcDbLine
 10
1000.246125281133
 20
-593.9229653013664
 30
0.0
 11
999.2461252811327
 21
-593.9229653013664
 31
0.0
  0
LINE
  5
1EB
102
{ACAD_REACTORS
330
2EA
102
}
330
1F
100
AcDbEntity
  8
1
  6
Continuous
 62
     7
100
AcDbLine
 10
999.2461252811327
 20
-593.2562986346998
 30
0.0
 11
1000.246125281133
 21
-593.2562986346998
 31
0.0
  0
LINE
  5
1EC
102
{ACAD_REACTORS
330
2EA
102
}
330
1F
100
AcDbEntity
  8
1
  6
Continuous
 62
     7
100
AcDbLine
 10
999.2461252811327
 20
-591.7442685006811
 30
0.0
 11
999.2461252811327
 21
-593.2562986346998
 31
0.0
  0
LINE
  5
1ED
102
{ACAD_REACTORS
330
2EA
102
}
330
1F
100
AcDbEntity
  8
1
  6
Continuous
 62
     7
100
AcDbLine
 10
1000.079551129969
 20
-592.2250911057793
 30
0.0
 11
999.2461252811327
 21
-591.7442685006811
 31
0.0
  0
LINE
  5
1EE
102
{ACAD_REACTORS
330
2EA
102
}
330
1F
100
AcDbEntity
  8
1
  6
Continuous
 62
     7
100
AcDbLine
 10
999.0793660989625
 20
-590.8784032791827
 30
0.0
 11
1000.412699432296
 21
-591.6476340484136
 31
0.0
  0
LINE
  5
1EF
102
{ACAD_REACTORS
330
2EB
102
}
330
1F
100
AcDbEntity
  8
1
  6
Continuous
 62
     7
100
AcDbLine
 10
991.9127919477993
 20
-595.2429013589698
 30
0.0
 11
991.9127919477993
 21
-591.9363625770964
 31
0.0
  0
LINE
  5
1F0
102
{ACAD_REACTORS
330
2EB
102
}
330
1F
100
AcDbEntity
  8
1
  6
Continuous
 62
     7
100
AcDbLine
 10
992.5794586144659
 20
-595.0503800507697
 30
0.0
 11
992.5794586144659
 21
-595.2429013589698
 31
0.0
  0
LINE
  5
1F1
102
{ACAD_REACTORS
330
2EB
102
}
330
1F
100
AcDbEntity
  8
1
  6
Continuous
 62
     7
100
AcDbLine
 10
992.5794586144659
 20
-591.9363625770964
 30
0.0
 11
992.5794586144659
 21
-595.0503800507697
 31
0.0
  0
LINE
  5
1F2
102
{ACAD_REACTORS
330
2EC
102
}
330
1F
100
AcDbEntity
  8
1
  6
Continuous
 62
     7
100
AcDbLine
 10
995.7462177966361
 20
-597.6470145030372
 30
0.0
 11
993.579643645473
 21
-596.3970678773661
 31
0.0
  0
LINE
  5
1F3
102
{ACAD_REACTORS
330
2EC
102
}
330
1F
100
AcDbEntity
  8
1
  6
Continuous
 62
     7
100
AcDbLine
 10
993.9127919477993
 20
-595.8196108200003
 30
0.0
 11
996.0793660989625
 21
-597.0695574456714
 31
0.0
  0
LINE
  5
1F4
102
{ACAD_REACTORS
330
2EC
102
}
330
1F
100
AcDbEntity
  8
1
  6
Continuous
 62
     7
100
AcDbLine
 10
993.9127919477993
 20
-591.1671318078656
 30
0.0
 11
993.9127919477993
 21
-595.8196108200003
 31
0.0
  0
LINE
  5
1F5
102
{ACAD_REACTORS
330
2EC
102
}
330
1F
100
AcDbEntity
  8
1
  6
Continuous
 62
     7
100
AcDbLine
 10
993.2461252811327
 20
-595.8196108200004
 30
0.0
 11
993.2461252811327
 21
-591.1671318078656
 31
0.0
  0
LINE
  5
1F6
102
{ACAD_REACTORS
330
2ED
102
}
330
1F
100
AcDbEntity
  8
1
  6
Continuous
 62
     7
100
AcDbLine
 10
997.4183582641759
 20
-590.2259315497607
 30
0.0
 11
996.2461252811327
 21
-592.2562986346998
 31
0.0
  0
LINE
  5
1F7
102
{ACAD_REACTORS
330
2ED
102
}
330
1F
100
AcDbEntity
  8
1
  6
Continuous
 62
     7
100
AcDbLine
 10
997.9127919477993
 20
-596.7813628974312
 30
0.0
 11
997.9127919477993
 21
-590.3584146559984
 31
0.0
  0
LINE
  5
1F8
102
{ACAD_REACTORS
330
2ED
102
}
330
1F
100
AcDbEntity
  8
1
  6
Continuous
 62
     7
100
AcDbLine
 10
997.2461252811327
 20
-593.589631968033
 30
0.0
 11
997.2461252811327
 21
-596.7813628974312
 31
0.0
  0
LINE
  5
1F9
102
{ACAD_REACTORS
330
2ED
102
}
330
1F
100
AcDbEntity
  8
1
  6
Continuous
 62
     7
100
AcDbLine
 10
995.2461252811327
 20
-595.2420468954001
 30
0.0
 11
995.2461252811327
 21
-593.589631968033
 31
0.0
  0
LINE
  5
1FA
102
{ACAD_REACTORS
330
2ED
102
}
330
1F
100
AcDbEntity
  8
1
  6
Continuous
 62
     7
100
AcDbLine
 10
994.5794586144659
 20
-593.589631968033
 30
0.0
 11
994.5794586144659
 21
-595.2420468954001
 31
0.0
  0
LINE
  5
1FB
102
{ACAD_REACTORS
330
2ED
102
}
330
1F
100
AcDbEntity
  8
1
  6
Continuous
 62
     7
100
AcDbLine
 10
995.0738922980894
 20
-590.2259315497607
 30
0.0
 11
996.2461252811327
 21
-592.2562986346998
 31
0.0
  0
LINE
  5
1FC
102
{ACAD_REACTORS
330
2ED
102
}
330
1F
100
AcDbEntity
  8
1
  6
Continuous
 62
     7
100
AcDbLine
 10
994.5794586144659
 20
-593.589631968033
 30
0.0
 11
994.5794586144659
 21
-590.3584146559984
 31
0.0
  0
LINE
  5
1FD
330
1F
100
AcDbEntity
  8
1
  6
Continuous
 62
     7
100
AcDbLine
 10
996.2461252811327
 20
-598.589631968033
 30
0.0
 11
987.8296900059911
 21
-593.7339962323745
 31
0.0
  0
LINE
  5
1FE
330
1F
100
AcDbEntity
  8
1
  6
Continuous
 62
     7
100
AcDbLine
 10
1004.662560556274
 20
-593.7339962323745
 30
0.0
 11
996.2461252811327
 21
-598.589631968033
 31
0.0
  0
LINE
  5
1FF
330
1F
100
AcDbEntity
  8
1
  6
Continuous
 62
     7
100
AcDbLine
 10
996.2461252811327
 20
-588.589631968033
 30
0.0
 11
1004.662560556274
 21
-593.4452677036917
 31
0.0
  0
LINE
  5
200
330
1F
100
AcDbEntity
  8
1
  6
Continuous
 62
     7
100
AcDbLine
 10
987.8296900059911
 20
-593.4452677036917
 30
0.0
 11
996.2461252811327
 21
-588.589631968033
 31
0.0
  0
LINE
  5
201
102
{ACAD_REACTORS
330
2ED
102
}
330
1F
100
AcDbEntity
  8
1
  6
Continuous
 62
     7
100
AcDbLine
 10
995.2461252811327
 20
-591.8575811604642
 30
0.0
 11
995.2461252811327
 21
-593.589631968033
 31
0.0
  0
LINE
  5
202
102
{ACAD_REACTORS
330
2ED
102
}
330
1F
100
AcDbEntity
  8
1
  6
Continuous
 62
     7
100
AcDbLine
 10
996.1017877138352
 20
-593.339631968033
 30
0.0
 11
995.2461252811327
 21
-591.8575811604642
 31
0.0
  0
LINE
  5
203
102
{ACAD_REACTORS
330
2ED
102
}
330
1F
100
AcDbEntity
  8
1
  6
Continuous
 62
     7
100
AcDbLine
 10
997.2461252811327
 20
-591.8575811604642
 30
0.0
 11
996.39046284843
 21
-593.339631968033
 31
0.0
  0
LINE
  5
204
102
{ACAD_REACTORS
330
2ED
102
}
330
1F
100
AcDbEntity
  8
1
  6
Continuous
 62
     7
100
AcDbLine
 10
997.2461252811327
 20
-593.589631968033
 30
0.0
 11
997.2461252811327
 21
-591.8575811604642
 31
0.0
  0
LINE
  5
205
102
{ACAD_REACTORS
330
2EA
102
}
330
1F
100
AcDbEntity
  8
1
  6
Continuous
 62
     7
100
AcDbLine
 10
998.579458614466
 20
-596.0121321282004
 30
0.0
 11
998.579458614466
 21
-591.1671318078656
 31
0.0
  0
LINE
  5
206
330
1F
100
AcDbEntity
  8
1
  6
Continuous
 62
     7
100
AcDbLine
 10
825.56982459239
 20
-314.0896319680329
 30
0.0
 11
825.56982459239
 21
-601.0896319680331
 31
0.0
  0
LINE
  5
207
330
1F
100
AcDbEntity
  8
1
  6
Continuous
 62
     7
100
AcDbLine
 10
1009.56982459239
 20
-314.0896319680329
 30
0.0
 11
825.56982459239
 21
-314.0896319680329
 31
0.0
  0
LINE
  5
208
330
1F
100
AcDbEntity
  8
1
  6
Continuous
 62
     7
100
AcDbLine
 10
1009.56982459239
 20
-601.0896319680331
 30
0.0
 11
1009.56982459239
 21
-314.0896319680329
 31
0.0
  0
LINE
  5
209
330
1F
100
AcDbEntity
  8
1
  6
Continuous
 62
     7
100
AcDbLine
 10
1014.56982459239
 20
-309.0896319680329
 30
0.0
 11
804.5698245923899
 21
-309.0896319680329
 31
0.0
  0
LINE
  5
20A
330
1F
100
AcDbEntity
  8
1
  6
Continuous
 62
     7
100
AcDbLine
 10
804.5698245923899
 20
-309.0896319680329
 30
0.0
 11
804.5698245923899
 21
-606.089631968033
 31
0.0
  0
LINE
  5
20B
330
1F
100
AcDbEntity
  8
1
  6
Continuous
 62
     7
100
AcDbLine
 10
804.5698245923899
 20
-606.089631968033
 30
0.0
 11
1014.56982459239
 21
-606.089631968033
 31
0.0
  0
LINE
  5
20C
330
1F
100
AcDbEntity
  8
1
  6
Continuous
 62
     7
100
AcDbLine
 10
1014.56982459239
 20
-606.089631968033
 30
0.0
 11
1014.56982459239
 21
-309.0896319680329
 31
0.0
  0
LINE
  5
20D
330
1F
100
AcDbEntity
  8
1
  6
Continuous
 62
     7
100
AcDbLine
 10
804.5698245923899
 20
-457.5896319680333
 30
0.0
 11
819.5698245923899
 21
-457.5896319680333
 31
0.0
  0
LINE
  5
20E
330
1F
100
AcDbEntity
  8
1
  6
Continuous
 62
     7
100
AcDbLine
 10
825.56982459239
 20
-593.589631968033
 30
0.0
 11
855.56982459239
 21
-593.589631968033
 31
0.0
  0
LINE
  5
20F
330
1F
100
AcDbEntity
  8
1
  6
Continuous
 62
     7
100
AcDbLine
 10
855.56982459239
 20
-586.089631968033
 30
0.0
 11
855.56982459239
 21
-601.089631968033
 31
0.0
  0
LINE
  5
210
330
1F
100
AcDbEntity
  8
1
  6
Continuous
 62
     7
100
AcDbLine
 10
982.9224259698753
 20
-586.089631968033
 30
0.0
 11
982.9224259698753
 21
-601.089631968033
 31
0.0
  0
LINE
  5
211
330
1F
100
AcDbEntity
  8
1
  6
Continuous
 62
     7
100
AcDbLine
 10
965.56982459239
 20
-586.089631968033
 30
0.0
 11
965.56982459239
 21
-601.089631968033
 31
0.0
  0
LINE
  5
212
330
1F
100
AcDbEntity
  8
1
  6
Continuous
 62
     7
100
AcDbLine
 10
825.56982459239
 20
-586.089631968033
 30
0.0
 11
825.56982459239
 21
-601.0896319680331
 31
0.0
  0
ARC
  5
213
102
{ACAD_REACTORS
330
2E6
102
}
330
1F
100
AcDbEntity
  8
0
  6
Continuous
 62
     2
100
AcDbCircle
 10
872.8396810135731
 20
-412.1985553155125
 30
0.0
 40
0.299999999999513
100
AcDbArc
 50
119.9816393687
 51
180.0
  0
ARC
  5
214
330
1F
100
AcDbEntity
  8
0
  6
Continuous
 62
     7
100
AcDbCircle
 10
855.8821502315819
 20
-424.3973863155125
 30
0.0
 40
0.8000000000007184
100
AcDbArc
 50
165.0000000000151
 51
270.0
  0
ARC
  5
215
330
1F
100
AcDbEntity
  8
0
  6
Continuous
 62
     2
100
AcDbCircle
 10
854.839569933309
 20
-436.6973863155125
 30
0.0
 40
0.4999999999998803
100
AcDbArc
 50
312.8181467430184
 51
47.18185325699492
  0
ARC
  5
216
330
1F
100
AcDbEntity
  8
0
  6
Continuous
 62
     2
100
AcDbCircle
 10
854.839569933309
 20
-434.8973863155124
 30
0.0
 40
0.500000000000047
100
AcDbArc
 50
312.8181467430006
 51
47.18185325698607
  0
ARC
  5
217
330
1F
100
AcDbEntity
  8
0
  6
Continuous
 62
     2
100
AcDbCircle
 10
854.839569933309
 20
-438.4973863155125
 30
0.0
 40
0.499999999999922
100
AcDbArc
 50
312.8181467430139
 51
47.18185325699049
  0
ARC
  5
218
330
1F
100
AcDbEntity
  8
0
  6
Continuous
 62
     2
100
AcDbCircle
 10
855.339569933309
 20
-435.7973863155125
 30
0.0
 40
0.500000000000047
100
AcDbArc
 50
132.8181467430007
 51
180.0
  0
ARC
  5
219
330
1F
100
AcDbEntity
  8
0
  6
Continuous
 62
     2
100
AcDbCircle
 10
855.339569933309
 20
-435.7973863155125
 30
0.0
 40
0.5
100
AcDbArc
 50
180.0
 51
227.1818532569949
  0
ARC
  5
21A
330
1F
100
AcDbEntity
  8
0
  6
Continuous
 62
     2
100
AcDbCircle
 10
855.339569933309
 20
-433.9973863155125
 30
0.0
 40
0.5
100
AcDbArc
 50
180.0
 51
227.181853256986
  0
ARC
  5
21B
330
1F
100
AcDbEntity
  8
0
  6
Continuous
 62
     2
100
AcDbCircle
 10
855.339569933309
 20
-439.3973863155124
 30
0.0
 40
0.499999999999922
100
AcDbArc
 50
132.8181467430139
 51
180.0
  0
ARC
  5
21C
330
1F
100
AcDbEntity
  8
0
  6
Continuous
 62
     7
100
AcDbCircle
 10
891.570909966163
 20
-402.1973863155125
 30
0.0
 40
2.999999999999901
100
AcDbArc
 50
15.00000000000397
 51
82.94127086171525
  0
ARC
  5
21D
102
{ACAD_REACTORS
330
2E7
102
}
330
1F
100
AcDbEntity
  8
0
  6
Continuous
 62
     2
100
AcDbCircle
 10
876.43956993331
 20
-413.5365426266928
 30
0.0
 40
0.4000000000010004
100
AcDbArc
 50
180.0
 51
240.018360631139
  0
ARC
  5
21E
102
{ACAD_REACTORS
330
2E7
102
}
330
1F
100
AcDbEntity
  8
0
  6
Continuous
 62
     2
100
AcDbCircle
 10
877.6395699333092
 20
-414.4597477193053
 30
0.0
 40
0.1999999999999771
100
AcDbArc
 50
240.0183606310742
 51
60.01836063115501
  0
ARC
  5
21F
102
{ACAD_REACTORS
330
2E9
102
}
330
1F
100
AcDbEntity
  8
0
  6
Continuous
 62
     2
100
AcDbCircle
 10
877.039569933309
 20
-413.1900042719328
 30
0.0
 40
0.2000000000000455
100
AcDbArc
 50
180.0
 51
0.0
  0
ARC
  5
220
102
{ACAD_REACTORS
330
2E5
102
}
330
1F
100
AcDbEntity
  8
0
  6
Continuous
 62
     2
100
AcDbCircle
 10
875.43956993331
 20
-413.1905169500745
 30
0.0
 40
0.200000000000955
100
AcDbArc
 50
180.0
 51
0.0
  0
ARC
  5
221
102
{ACAD_REACTORS
330
2E8
102
}
330
1F
100
AcDbEntity
  8
0
  6
Continuous
 62
     2
100
AcDbCircle
 10
879.43956993331
 20
-413.6520554116129
 30
0.0
 40
0.200000000000955
100
AcDbArc
 50
180.0
 51
299.9816393686112
  0
ARC
  5
222
102
{ACAD_REACTORS
330
2E8
102
}
330
1F
100
AcDbEntity
  8
0
  6
Continuous
 62
     2
100
AcDbCircle
 10
880.2395699333091
 20
-413.1905169500745
 30
0.0
 40
0.2000000000000112
100
AcDbArc
 50
299.981639368845
 51
119.9816393688531
  0
ARC
  5
223
102
{ACAD_REACTORS
330
2E9
102
}
330
1F
100
AcDbEntity
  8
0
  6
Continuous
 62
     2
100
AcDbCircle
 10
878.6395699333092
 20
-414.1135938731514
 30
0.0
 40
0.199999999999136
100
AcDbArc
 50
180.0
 51
0.0
  0
ARC
  5
224
102
{ACAD_REACTORS
330
2E6
102
}
330
1F
100
AcDbEntity
  8
0
  6
Continuous
 62
     2
100
AcDbCircle
 10
872.8396810135731
 20
-412.1985553155125
 30
0.0
 40
0.0999999999996988
100
AcDbArc
 50
119.9816393683448
 51
240.0183606315738
  0
ARC
  5
225
102
{ACAD_REACTORS
330
2E6
102
}
330
1F
100
AcDbEntity
  8
0
  6
Continuous
 62
     2
100
AcDbCircle
 10
872.8396810135731
 20
-412.1985553155125
 30
0.0
 40
0.299999999999045
100
AcDbArc
 50
180.0
 51
240.0183606313055
  0
ARC
  5
226
102
{ACAD_REACTORS
330
2E6
102
}
330
1F
100
AcDbEntity
  8
0
  6
Continuous
 62
     2
100
AcDbCircle
 10
882.839458853046
 20
-412.1985553155125
 30
0.0
 40
0.0999999999994526
100
AcDbArc
 50
299.9816393684262
 51
60.01836063165521
  0
ARC
  5
227
102
{ACAD_REACTORS
330
2E6
102
}
330
1F
100
AcDbEntity
  8
0
  6
Continuous
 62
     2
100
AcDbCircle
 10
882.839458853046
 20
-412.1985553155125
 30
0.0
 40
0.2999999999994638
100
AcDbArc
 50
299.9816393687054
 51
60.01836063130003
  0
ARC
  5
228
330
1F
100
AcDbEntity
  8
0
  6
Continuous
 62
     7
100
AcDbCircle
 10
864.1082299004551
 20
-402.1973863155125
 30
0.0
 40
2.999999999999989
100
AcDbArc
 50
97.05872913828908
 51
164.999999999996
  0
ARC
  5
229
330
1F
100
AcDbEntity
  8
0
  6
Continuous
 62
     7
100
AcDbCircle
 10
864.1082299004551
 20
-402.1973863155125
 30
0.0
 40
3.0
100
AcDbArc
 50
90.0
 51
97.05872913828908
  0
ARC
  5
22A
330
1F
100
AcDbEntity
  8
0
  6
Continuous
 62
     7
100
AcDbCircle
 10
891.570909966163
 20
-402.1973863155125
 30
0.0
 40
2.999999999999961
100
AcDbArc
 50
82.94127086171525
 51
90.0
  0
ARC
  5
22B
102
{ACAD_REACTORS
330
2E7
102
}
330
1F
100
AcDbEntity
  8
0
  6
Continuous
 62
     2
100
AcDbCircle
 10
876.2395699333091
 20
-410.7450552194119
 30
0.0
 40
0.200000000000955
100
AcDbArc
 50
0.0
 51
180.0
  0
ARC
  5
22C
102
{ACAD_REACTORS
330
2E9
102
}
330
1F
100
AcDbEntity
  8
0
  6
Continuous
 62
     2
100
AcDbCircle
 10
876.998549660795
 20
-410.2598249282918
 30
0.0
 40
0.1589797274844229
100
AcDbArc
 50
30.00000000018306
 51
180.0
  0
ARC
  5
22D
102
{ACAD_REACTORS
330
2E5
102
}
330
1F
100
AcDbEntity
  8
0
  6
Continuous
 62
     2
100
AcDbCircle
 10
875.43956993331
 20
-411.2065936809505
 30
0.0
 40
0.199999999999136
100
AcDbArc
 50
0.0
 51
180.0
  0
ARC
  5
22E
102
{ACAD_REACTORS
330
2E8
102
}
330
1F
100
AcDbEntity
  8
0
  6
Continuous
 62
     2
100
AcDbCircle
 10
880.2395699333091
 20
-411.2065936809505
 30
0.0
 40
0.1999999999999619
100
AcDbArc
 50
240.0183606311469
 51
60.01836063114688
  0
ARC
  5
22F
102
{ACAD_REACTORS
330
2E8
102
}
330
1F
100
AcDbEntity
  8
0
  6
Continuous
 62
     2
100
AcDbCircle
 10
879.43956993331
 20
-410.7450552194119
 30
0.0
 40
0.199999999999409
100
AcDbArc
 50
60.01836063135628
 51
180.0
  0
ARC
  5
230
102
{ACAD_REACTORS
330
2E9
102
}
330
1F
100
AcDbEntity
  8
0
  6
Continuous
 62
     2
100
AcDbCircle
 10
878.6805902058242
 20
-410.2598249282918
 30
0.0
 40
0.1589797274848479
100
AcDbArc
 50
0.0
 51
150.0000000000218
  0
ARC
  5
231
102
{ACAD_REACTORS
330
2E9
102
}
330
1F
100
AcDbEntity
  8
0
  6
Continuous
 62
     2
100
AcDbCircle
 10
877.839569933309
 20
-411.9985553155125
 30
0.0
 40
0.0999999999995807
100
AcDbArc
 50
210.0000000001462
 51
330.0000000001795
  0
ARC
  5
232
102
{ACAD_REACTORS
330
2E8
102
}
330
1F
100
AcDbEntity
  8
0
  6
Continuous
 62
     2
100
AcDbCircle
 10
880.2395699333091
 20
-412.1985553155125
 30
0.0
 40
0.1999999999999886
100
AcDbArc
 50
270.0
 51
90.0
  0
ARC
  5
233
330
1F
100
AcDbEntity
  8
0
  6
Continuous
 62
     7
100
AcDbCircle
 10
877.839569933309
 20
-444.6973863155125
 30
0.0
 40
2.500000000000281
100
AcDbArc
 50
14.99999999999813
 51
165.0000000000019
  0
ARC
  5
234
330
1F
100
AcDbEntity
  8
0
  6
Continuous
 62
     2
100
AcDbCircle
 10
855.339569933309
 20
-439.3973863155124
 30
0.0
 40
0.5
100
AcDbArc
 50
180.0
 51
227.1818532569993
  0
ARC
  5
235
330
1F
100
AcDbEntity
  8
0
  6
Continuous
 62
     2
100
AcDbCircle
 10
854.839569933309
 20
-440.2973863155125
 30
0.0
 40
0.5000000000000053
100
AcDbArc
 50
312.8181467430051
 51
47.18185325699935
  0
ARC
  5
236
330
1F
100
AcDbEntity
  8
0
  6
Continuous
 62
     2
100
AcDbCircle
 10
855.339569933309
 20
-441.1973863155125
 30
0.0
 40
0.5000000000000053
100
AcDbArc
 50
132.8181467430051
 51
180.0
  0
ARC
  5
237
330
1F
100
AcDbEntity
  8
0
  6
Continuous
 62
     2
100
AcDbCircle
 10
855.339569933309
 20
-437.5973863155124
 30
0.0
 40
0.5
100
AcDbArc
 50
180.0
 51
227.1818532570038
  0
ARC
  5
238
330
1F
100
AcDbEntity
  8
0
  6
Continuous
 62
     2
100
AcDbCircle
 10
855.339569933309
 20
-437.5973863155124
 30
0.0
 40
0.4999999999998803
100
AcDbArc
 50
132.8181467430184
 51
180.0
  0
ARC
  5
239
330
1F
100
AcDbEntity
  8
0
  6
Continuous
 62
     7
100
AcDbCircle
 10
877.839569933309
 20
-444.6973863155125
 30
0.0
 40
2.0
100
AcDbArc
 50
0.0
 51
180.0
  0
ARC
  5
23A
330
1F
100
AcDbEntity
  8
0
  6
Continuous
 62
     2
100
AcDbCircle
 10
900.839569933309
 20
-434.8973863155124
 30
0.0
 40
0.499999999999922
100
AcDbArc
 50
132.8181467430139
 51
227.1818532569993
  0
ARC
  5
23B
330
1F
100
AcDbEntity
  8
0
  6
Continuous
 62
     7
100
AcDbCircle
 10
899.7969896350359
 20
-424.3973863155125
 30
0.0
 40
0.8000000000000114
100
AcDbArc
 50
270.0
 51
15.00000000000176
  0
ARC
  5
23C
330
1F
100
AcDbEntity
  8
0
  6
Continuous
 62
     2
100
AcDbCircle
 10
900.839569933309
 20
-436.6973863155125
 30
0.0
 40
0.5000000000000053
100
AcDbArc
 50
132.8181467430051
 51
227.1818532569816
  0
ARC
  5
23D
330
1F
100
AcDbEntity
  8
0
  6
Continuous
 62
     2
100
AcDbCircle
 10
900.839569933309
 20
-440.2973863155125
 30
0.0
 40
0.500000000000047
100
AcDbArc
 50
132.8181467430007
 51
227.1818532569949
  0
ARC
  5
23E
330
1F
100
AcDbEntity
  8
0
  6
Continuous
 62
     2
100
AcDbCircle
 10
900.839569933309
 20
-438.4973863155125
 30
0.0
 40
0.4999999999999636
100
AcDbArc
 50
132.8181467430095
 51
227.181853256986
  0
ARC
  5
23F
330
1F
100
AcDbEntity
  8
0
  6
Continuous
 62
     7
100
AcDbCircle
 10
900.339569933309
 20
-435.7973863155125
 30
0.0
 40
0.5000000000000053
100
AcDbArc
 50
312.8181467430051
 51
0.0
  0
ARC
  5
240
330
1F
100
AcDbEntity
  8
0
  6
Continuous
 62
     7
100
AcDbCircle
 10
900.339569933309
 20
-437.5973863155124
 30
0.0
 40
0.5
100
AcDbArc
 50
0.0
 51
47.18185325698164
  0
ARC
  5
241
330
1F
100
AcDbEntity
  8
0
  6
Continuous
 62
     7
100
AcDbCircle
 10
900.339569933309
 20
-435.7973863155125
 30
0.0
 40
0.5
100
AcDbArc
 50
0.0
 51
47.18185325699935
  0
ARC
  5
242
330
1F
100
AcDbEntity
  8
0
  6
Continuous
 62
     7
100
AcDbCircle
 10
900.339569933309
 20
-433.9973863155125
 30
0.0
 40
0.499999999999922
100
AcDbArc
 50
312.8181467430139
 51
0.0
  0
ARC
  5
243
330
1F
100
AcDbEntity
  8
0
  6
Continuous
 62
     7
100
AcDbCircle
 10
900.339569933309
 20
-439.3973863155124
 30
0.0
 40
0.500000000000047
100
AcDbArc
 50
312.8181467430006
 51
0.0
  0
ARC
  5
244
330
1F
100
AcDbEntity
  8
0
  6
Continuous
 62
     7
100
AcDbCircle
 10
900.339569933309
 20
-441.1973863155125
 30
0.0
 40
0.5
100
AcDbArc
 50
0.0
 51
47.18185325699492
  0
ARC
  5
245
330
1F
100
AcDbEntity
  8
0
  6
Continuous
 62
     7
100
AcDbCircle
 10
900.339569933309
 20
-439.3973863155124
 30
0.0
 40
0.5
100
AcDbArc
 50
0.0
 51
47.18185325698607
  0
ARC
  5
246
330
1F
100
AcDbEntity
  8
0
  6
Continuous
 62
     7
100
AcDbCircle
 10
900.339569933309
 20
-437.5973863155124
 30
0.0
 40
0.5000000000000887
100
AcDbArc
 50
312.8181467429962
 51
0.0
  0
ARC
  5
247
330
1F
100
AcDbEntity
  8
0
  6
Continuous
 62
     7
100
AcDbCircle
 10
877.839569933309
 20
-418.4473863155126
 30
0.0
 40
15.00000000000008
100
AcDbArc
 50
71.80512766123302
 51
108.1948723387678
  0
ARC
  5
248
330
1F
100
AcDbEntity
  8
0
  6
Continuous
 62
     7
100
AcDbCircle
 10
946.3645699333091
 20
-438.4973863155125
 30
0.0
 40
0.4999999999997674
100
AcDbArc
 50
312.8181467429948
 51
47.18185325700961
  0
ARC
  5
249
330
1F
100
AcDbEntity
  8
0
  6
Continuous
 62
     7
100
AcDbCircle
 10
946.3645699333091
 20
-440.2973863155125
 30
0.0
 40
0.4999999999998508
100
AcDbArc
 50
312.818146742986
 51
47.18185325701846
  0
ARC
  5
24A
330
1F
100
AcDbEntity
  8
0
  6
Continuous
 62
     7
100
AcDbCircle
 10
946.8645699333091
 20
-437.5973863155124
 30
0.0
 40
0.4999999999998803
100
AcDbArc
 50
132.8181467430184
 51
227.1818532570038
  0
ARC
  5
24B
330
1F
100
AcDbEntity
  8
0
  6
Continuous
 62
     7
100
AcDbCircle
 10
946.8645699333091
 20
-433.9973863155125
 30
0.0
 40
0.5
100
AcDbArc
 50
180.0
 51
227.181853256986
  0
ARC
  5
24C
330
1F
100
AcDbEntity
  8
0
  6
Continuous
 62
     7
100
AcDbCircle
 10
946.8645699333091
 20
-435.7973863155125
 30
0.0
 40
0.500000000000047
100
AcDbArc
 50
132.8181467430007
 51
227.1818532569949
  0
ARC
  5
24D
330
1F
100
AcDbEntity
  8
0
  6
Continuous
 62
     7
100
AcDbCircle
 10
946.3645699333091
 20
-436.6973863155125
 30
0.0
 40
0.4999999999997257
100
AcDbArc
 50
312.8181467429993
 51
47.18185325701403
  0
ARC
  5
24E
330
1F
100
AcDbEntity
  8
0
  6
Continuous
 62
     7
100
AcDbCircle
 10
946.3645699333091
 20
-434.8973863155124
 30
0.0
 40
0.4999999999998925
100
AcDbArc
 50
312.8181467429815
 51
47.18185325700518
  0
ARC
  5
24F
330
1F
100
AcDbEntity
  8
0
  6
Continuous
 62
     7
100
AcDbCircle
 10
946.8645699333091
 20
-441.1973863155125
 30
0.0
 40
0.5000000000000053
100
AcDbArc
 50
132.8181467430051
 51
180.0
  0
ARC
  5
250
330
1F
100
AcDbEntity
  8
0
  6
Continuous
 62
     7
100
AcDbCircle
 10
946.8645699333091
 20
-439.3973863155124
 30
0.0
 40
0.499999999999922
100
AcDbArc
 50
132.8181467430139
 51
227.1818532569993
  0
ARC
  5
251
330
1F
100
AcDbEntity
  8
0
  6
Continuous
 62
     7
100
AcDbCircle
 10
946.289569933309
 20
-424.3973863155125
 30
0.0
 40
0.7999999999999545
100
AcDbArc
 50
180.0
 51
270.0
  0
ARC
  5
252
330
1F
100
AcDbEntity
  8
0
  6
Continuous
 62
     7
100
AcDbCircle
 10
972.6145699333091
 20
-441.1973863155125
 30
0.0
 40
0.5
100
AcDbArc
 50
0.0
 51
47.18185325701403
  0
ARC
  5
253
330
1F
100
AcDbEntity
  8
0
  6
Continuous
 62
     7
100
AcDbCircle
 10
973.1895699333089
 20
-424.3973863155125
 30
0.0
 40
0.8000000000000114
100
AcDbArc
 50
270.0
 51
0.0
  0
ARC
  5
254
330
1F
100
AcDbEntity
  8
0
  6
Continuous
 62
     7
100
AcDbCircle
 10
970.9895699333091
 20
-402.1973863155125
 30
0.0
 40
3.0
100
AcDbArc
 50
0.0
 51
90.0
  0
ARC
  5
255
330
1F
100
AcDbEntity
  8
0
  6
Continuous
 62
     7
100
AcDbCircle
 10
974.2395699333091
 20
-399.6973863155125
 30
0.0
 40
0.5
100
AcDbArc
 50
0.0
 51
90.0
  0
ARC
  5
256
330
1F
100
AcDbEntity
  8
0
  6
Continuous
 62
     7
100
AcDbCircle
 10
948.4895699333091
 20
-402.1973863155125
 30
0.0
 40
3.0
100
AcDbArc
 50
90.0
 51
180.0
  0
ARC
  5
257
330
1F
100
AcDbEntity
  8
0
  6
Continuous
 62
     7
100
AcDbCircle
 10
945.2395699333091
 20
-399.6973863155125
 30
0.0
 40
0.5
100
AcDbArc
 50
90.0
 51
180.0
  0
ARC
  5
258
330
1F
100
AcDbEntity
  8
0
  6
Continuous
 62
     7
100
AcDbCircle
 10
972.6145699333091
 20
-433.9973863155125
 30
0.0
 40
0.4999999999997674
100
AcDbArc
 50
312.8181467429948
 51
0.0
  0
ARC
  5
259
330
1F
100
AcDbEntity
  8
0
  6
Continuous
 62
     7
100
AcDbCircle
 10
972.6145699333091
 20
-435.7973863155125
 30
0.0
 40
0.4999999999998508
100
AcDbArc
 50
312.818146742986
 51
47.18185325701846
  0
ARC
  5
25A
330
1F
100
AcDbEntity
  8
0
  6
Continuous
 62
     7
100
AcDbCircle
 10
972.6145699333091
 20
-439.3973863155124
 30
0.0
 40
0.4999999999998925
100
AcDbArc
 50
312.8181467429815
 51
47.18185325700518
  0
ARC
  5
25B
330
1F
100
AcDbEntity
  8
0
  6
Continuous
 62
     7
100
AcDbCircle
 10
972.6145699333091
 20
-437.5973863155124
 30
0.0
 40
0.4999999999999342
100
AcDbArc
 50
312.8181467429771
 51
47.18185325700075
  0
ARC
  5
25C
330
1F
100
AcDbEntity
  8
0
  6
Continuous
 62
     7
100
AcDbCircle
 10
973.1145699333091
 20
-436.6973863155125
 30
0.0
 40
0.5000000000000053
100
AcDbArc
 50
132.8181467430051
 51
227.1818532569816
  0
ARC
  5
25D
330
1F
100
AcDbEntity
  8
0
  6
Continuous
 62
     7
100
AcDbCircle
 10
973.1145699333091
 20
-434.8973863155124
 30
0.0
 40
0.499999999999922
100
AcDbArc
 50
132.8181467430139
 51
227.1818532569993
  0
ARC
  5
25E
330
1F
100
AcDbEntity
  8
0
  6
Continuous
 62
     7
100
AcDbCircle
 10
973.1145699333091
 20
-440.2973863155125
 30
0.0
 40
0.500000000000047
100
AcDbArc
 50
132.8181467430007
 51
227.1818532569949
  0
ARC
  5
25F
330
1F
100
AcDbEntity
  8
0
  6
Continuous
 62
     7
100
AcDbCircle
 10
973.1145699333091
 20
-438.4973863155125
 30
0.0
 40
0.4999999999999636
100
AcDbArc
 50
132.8181467430095
 51
227.181853256986
  0
ARC
  5
260
102
{ACAD_REACTORS
330
2EA
102
}
330
1F
100
AcDbEntity
  8
1
  6
Continuous
 62
     7
100
AcDbCircle
 10
1000.246125281133
 20
-595.2429013589698
 30
0.0
 40
0.3333333333332573
100
AcDbArc
 50
299.9816393688168
 51
119.9816393689594
  0
ARC
  5
261
102
{ACAD_REACTORS
330
2EA
102
}
330
1F
100
AcDbEntity
  8
1
  6
Continuous
 62
     7
100
AcDbCircle
 10
1000.246125281133
 20
-593.589631968033
 30
0.0
 40
0.3333333333333712
100
AcDbArc
 50
270.0
 51
90.0
  0
ARC
  5
262
102
{ACAD_REACTORS
330
2EA
102
}
330
1F
100
AcDbEntity
  8
1
  6
Continuous
 62
     7
100
AcDbCircle
 10
1000.246125281133
 20
-591.9363625770964
 30
0.0
 40
0.3333333333337686
100
AcDbArc
 50
240.0183606310309
 51
60.01836063117346
  0
ARC
  5
263
102
{ACAD_REACTORS
330
2EB
102
}
330
1F
100
AcDbEntity
  8
1
  6
Continuous
 62
     7
100
AcDbCircle
 10
992.2461252811327
 20
-595.2429013589698
 30
0.0
 40
0.3333333333333712
100
AcDbArc
 50
180.0
 51
0.0
  0
ARC
  5
264
102
{ACAD_REACTORS
330
2EB
102
}
330
1F
100
AcDbEntity
  8
1
  6
Continuous
 62
     7
100
AcDbCircle
 10
992.2461252811327
 20
-591.9363625770964
 30
0.0
 40
0.3333333333332575
100
AcDbArc
 50
0.0
 51
180.0
  0
ARC
  5
265
102
{ACAD_REACTORS
330
2EC
102
}
330
1F
100
AcDbEntity
  8
1
  6
Continuous
 62
     7
100
AcDbCircle
 10
995.9127919477993
 20
-597.3582859743543
 30
0.0
 40
0.3333333333333709
100
AcDbArc
 50
240.0183606311493
 51
60.01836063114937
  0
ARC
  5
266
102
{ACAD_REACTORS
330
2EC
102
}
330
1F
100
AcDbEntity
  8
1
  6
Continuous
 62
     7
100
AcDbCircle
 10
993.5794586144659
 20
-591.1671318078656
 30
0.0
 40
0.3333333333333712
100
AcDbArc
 50
0.0
 51
180.0
  0
ARC
  5
267
102
{ACAD_REACTORS
330
2ED
102
}
330
1F
100
AcDbEntity
  8
1
  6
Continuous
 62
     7
100
AcDbCircle
 10
997.647825735324
 20
-590.3584146559984
 30
0.0
 40
0.2649662124753149
100
AcDbArc
 50
0.0
 51
149.9999999999756
  0
ARC
  5
268
102
{ACAD_REACTORS
330
2ED
102
}
330
1F
100
AcDbEntity
  8
1
  6
Continuous
 62
     7
100
AcDbCircle
 10
997.579458614466
 20
-596.7813628974312
 30
0.0
 40
0.3333333333333712
100
AcDbArc
 50
180.0
 51
0.0
  0
ARC
  5
269
102
{ACAD_REACTORS
330
2ED
102
}
330
1F
100
AcDbEntity
  8
1
  6
Continuous
 62
     7
100
AcDbCircle
 10
994.9127919477993
 20
-595.2420468954001
 30
0.0
 40
0.3333333333333712
100
AcDbArc
 50
180.0
 51
0.0
  0
ARC
  5
26A
102
{ACAD_REACTORS
330
2ED
102
}
330
1F
100
AcDbEntity
  8
1
  6
Continuous
 62
     7
100
AcDbCircle
 10
994.8444248269412
 20
-590.3584146559984
 30
0.0
 40
0.2649662124753319
100
AcDbArc
 50
30.00000000001207
 51
180.0
  0
SPLINE
  5
26B
330
1F
100
AcDbEntity
  8
0
  6
Continuous
 62
     7
100
AcDbSpline
210
0.0
220
0.0
230
1.0
 70
     8
 71
     3
 72
    11
 73
     7
 74
     5
 42
0.000000001
 43
0.0000000001
 44
0.00000001
 40
0.0
 40
0.0
 40
0.0
 40
0.0
 40
0.561669875556612
 40
1.135640618276744
 40
1.735680579072531
 40
2.369680620723193
 40
2.369680620723193
 40
2.369680620723193
 40
2.369680620723193
 10
857.2381457142429
 20
-419.1973863155126
 30
0.0
 10
857.353984846219
 20
-419.3460780424675
 30
0.0
 10
857.5882000593299
 20
-419.6467179139382
 30
0.0
 10
858.086028282585
 20
-419.9599377843095
 30
0.0
 10
858.6605451789221
 20
-420.1622824599242
 30
0.0
 10
859.0731597108692
 20
-420.1854723114251
 30
0.0
 10
859.2851444366948
 20
-420.1973863155125
 30
0.0
 11
857.2381457142429
 21
-419.1973863155126
 31
0.0
 11
857.60804755911
 21
-419.6200512849204
 31
0.0
 11
858.087233736758
 21
-419.9359991030382
 31
0.0
 11
858.6545969016436
 21
-420.131311663862
 31
0.0
 11
859.2851444366948
 21
-420.1973863155125
 31
0.0
  0
SPLINE
  5
26C
330
1F
100
AcDbEntity
  8
0
  6
Continuous
 62
     7
100
AcDbSpline
210
0.0
220
0.0
230
1.0
 70
     8
 71
     3
 72
    11
 73
     7
 74
     5
 42
0.000000001
 43
0.0000000001
 44
0.00000001
 40
0.0
 40
0.0
 40
0.0
 40
0.0
 40
0.1905855457651518
 40
0.3990746305630239
 40
0.6261779409484444
 40
0.8674505863151849
 40
0.8674505863151849
 40
0.8674505863151849
 40
0.8674505863151849
 10
855.7985353282401
 20
-424.1151639989815
 30
0.0
 10
855.8619114911836
 20
-424.1195892700722
 30
0.0
 10
855.9946173503557
 20
-424.12885553596
 30
0.0
 10
856.2024505006931
 20
-424.1483000697687
 30
0.0
 10
856.4268572009346
 20
-424.171710379871
 30
0.0
 10
856.5819285249719
 20
-424.1898354536999
 30
0.0
 10
856.6618097992081
 20
-424.1991721585843
 30
0.0
 11
855.7985353282401
 21
-424.1151639989815
 31
0.0
 11
855.9886067990852
 21
-424.1291527901167
 31
0.0
 11
856.196235461436
 21
-424.1480746596315
 31
0.0
 11
856.4221093878599
 21
-424.1716730286849
 31
0.0
 11
856.6618097992081
 21
-424.1991721585843
 31
0.0
  0
SPLINE
  5
26D
330
1F
100
AcDbEntity
  8
0
  6
Continuous
 62
     7
100
AcDbSpline
210
0.0
220
0.0
230
1.0
 70
     8
 71
     3
 72
    11
 73
     7
 74
     5
 42
0.000000001
 43
0.0000000001
 44
0.00000001
 40
0.0
 40
0.0
 40
0.0
 40
0.0
 40
0.0300007697961269
 40
0.0688384591491638
 40
0.1210532306024653
 40
0.1879775637498979
 40
0.1879775637498979
 40
0.1879775637498979
 40
0.1879775637498979
 10
855.1094095705499
 20
-424.1903310794305
 30
0.0
 10
855.1140298672623
 20
-424.1812296770034
 30
0.0
 10
855.1246314126516
 20
-424.1603460056109
 30
0.0
 10
855.162072848658
 20
-424.1408234991915
 30
0.0
 10
855.2118618385211
 20
-424.1248766803846
 30
0.0
 10
855.2512815246085
 20
-424.1188855603526
 30
0.0
 10
855.273424852522
 20
-424.1155201507308
 30
0.0
 11
855.1094095705499
 21
-424.1903310794305
 31
0.0
 11
855.1253008614161
 21
-424.1648847965805
 31
0.0
 11
855.1580325909389
 21
-424.1439802329521
 31
0.0
 11
855.2075852726165
 21
-424.1275207664791
 31
0.0
 11
855.273424852522
 21
-424.1155201507308
 31
0.0
  0
SPLINE
  5
26E
330
1F
100
AcDbEntity
  8
0
  6
Continuous
 62
     7
100
AcDbSpline
210
0.0
220
0.0
230
1.0
 70
     8
 71
     3
 72
    11
 73
     7
 74
     5
 42
0.000000001
 43
0.0000000001
 44
0.00000001
 40
0.0
 40
0.0
 40
0.0
 40
0.0
 40
0.0999243958251065
 40
0.2208889740819162
 40
0.3637234916035793
 40
0.5257578580679964
 40
0.5257578580679964
 40
0.5257578580679964
 40
0.5257578580679964
 10
855.273424852522
 20
-424.1155201507308
 30
0.0
 10
855.3065788915321
 20
-424.1121763868384
 30
0.0
 10
855.3798679190802
 20
-424.1047848084705
 30
0.0
 10
855.5012212443718
 20
-424.1034016646093
 30
0.0
 10
855.6431369134414
 20
-424.1062573854092
 30
0.0
 10
855.7446057752456
 20
-424.1120730378253
 30
0.0
 10
855.7985353282401
 20
-424.1151639989815
 30
0.0
 11
855.273424852522
 21
-424.1155201507308
 31
0.0
 11
855.3729706171035
 21
-424.1068295957239
 31
0.0
 11
855.4939036633319
 21
-424.1040677302077
 31
0.0
 11
855.6367089692751
 21
-424.1069563945445
 31
0.0
 11
855.7985353282401
 21
-424.1151639989815
 31
0.0
  0
SPLINE
  5
26F
330
1F
100
AcDbEntity
  8
0
  6
Continuous
 62
     7
100
AcDbSpline
210
0.0
220
0.0
230
1.0
 70
     8
 71
     3
 72
    11
 73
     7
 74
     5
 42
0.000000001
 43
0.0000000001
 44
0.00000001
 40
0.0
 40
0.0
 40
0.0
 40
0.0
 40
0.213901571811422
 40
0.4351358403308641
 40
0.6636949319509841
 40
0.8970251245501464
 40
0.8970251245501464
 40
0.8970251245501464
 40
0.8970251245501464
 10
856.6618097992081
 20
-424.1991721585843
 30
0.0
 10
856.7325951485442
 20
-424.2077294047872
 30
0.0
 10
856.8765924170679
 20
-424.225137260636
 30
0.0
 10
857.0960379633383
 20
-424.2532031117313
 30
0.0
 10
857.3218088018075
 20
-424.2828430507067
 30
0.0
 10
857.4743884264511
 20
-424.303437539935
 30
0.0
 10
857.5514662759659
 20
-424.3138411577722
 30
0.0
 11
856.6618097992081
 21
-424.1991721585843
 31
0.0
 11
856.8741361240504
 21
-424.2250838204064
 31
0.0
 11
857.093600358243
 21
-424.2530132225265
 31
0.0
 11
857.320213900657
 21
-424.2827715957288
 31
0.0
 11
857.5514662759659
 21
-424.3138411577722
 31
0.0
  0
SPLINE
  5
270
330
1F
100
AcDbEntity
  8
0
  6
Continuous
 62
     2
100
AcDbSpline
210
0.0
220
0.0
230
1.0
 70
     8
 71
     3
 72
    11
 73
     7
 74
     5
 42
0.000000001
 43
0.0000000001
 44
0.00000001
 40
0.0
 40
0.0
 40
0.0
 40
0.0
 40
0.15216861304106
 40
0.3054147609982544
 40
0.4595213089420389
 40
0.614002130590303
 40
0.614002130590303
 40
0.614002130590303
 40
0.614002130590303
 10
857.5514662759659
 20
-424.3138411577722
 30
0.0
 10
857.6017268291088
 20
-424.3206739447187
 30
0.0
 10
857.7026038379107
 20
-424.334387917766
 30
0.0
 10
857.8543537284311
 20
-424.3552250247
 30
0.0
 10
858.006855576023
 20
-424.376251127976
 30
0.0
 10
858.108749217394
 20
-424.3903355538903
 30
0.0
 10
858.159757828484
 20
-424.3973863155125
 30
0.0
 11
857.5514662759659
 21
-424.3138411577722
 31
0.0
 11
857.702243354496
 21
-424.3343730692056
 31
0.0
 11
857.8540676742779
 21
-424.3551999218184
 31
0.0
 11
858.0067307762157
 21
-424.3762428643107
 31
0.0
 11
858.159757828484
 21
-424.3973863155125
 31
0.0
  0
SPLINE
  5
271
330
1F
100
AcDbEntity
  8
0
  6
Continuous
 62
     2
100
AcDbSpline
210
0.0
220
0.0
230
1.0
 70
    24
 71
     3
 72
    15
 73
    11
 74
     9
 42
0.000000001
 43
0.0000000001
 44
0.00000001
 40
0.0
 40
0.0
 40
0.0
 40
0.0
 40
0.1177292231594151
 40
0.2328948893388088
 40
0.4115811024248046
 40
0.5656854039210657
 40
0.6860034510983724
 40
0.7653495548323122
 40
0.7826747774161618
 40
0.8000000000000114
 40
0.8000000000000114
 40
0.8000000000000114
 40
0.8000000000000114
 10
858.159757828484
 20
-424.3973863155125
 30
0.0
 10
858.1597578284839
 20
-424.4366293898989
 30
0.0
 10
858.1597578284839
 20
-424.5142610196788
 30
0.0
 10
858.1597578284834
 20
-424.6514547204868
 30
0.0
 10
858.1597578284836
 20
-424.8007734474072
 30
0.0
 10
858.1597578284837
 20
-424.9518096346607
 30
0.0
 10
858.159757828484
 20
-425.0697324521296
 30
0.0
 10
858.1597578284839
 20
-425.1420622432948
 30
0.0
 10
858.159757828484
 20
-425.1800610929287
 30
0.0
 10
858.159757828484
 20
-425.1916112413179
 30
0.0
 10
858.159757828484
 20
-425.1973863155125
 30
0.0
 11
858.159757828484
 21
-424.3973863155125
 31
0.0
 11
858.1597578284839
 21
-424.515115538672
 31
0.0
 11
858.159757828484
 21
-424.6302812048514
 31
0.0
 11
858.1597578284839
 21
-424.8089674179374
 31
0.0
 11
858.159757828484
 21
-424.9630717194336
 31
0.0
 11
858.1597578284839
 21
-425.0833897666109
 31
0.0
 11
858.159757828484
 21
-425.1627358703449
 31
0.0
 11
858.1597578284839
 21
-425.1800610929287
 31
0.0
 11
858.159757828484
 21
-425.1973863155125
 31
0.0
  0
SPLINE
  5
272
330
1F
100
AcDbEntity
  8
0
  6
Continuous
 62
     7
100
AcDbSpline
210
0.0
220
0.0
230
1.0
 70
     8
 71
     3
 72
    11
 73
     7
 74
     5
 42
0.000000001
 43
0.0000000001
 44
0.00000001
 40
0.0
 40
0.0
 40
0.0
 40
0.0
 40
0.6692266903299542
 40
1.369064141514861
 40
2.090436444182946
 40
2.821427118721745
 40
2.821427118721745
 40
2.821427118721745
 40
2.821427118721745
 10
892.106808351025
 20
-404.1973863155125
 30
0.0
 10
892.3302063999612
 20
-404.2107758011916
 30
0.0
 10
892.7872208337892
 20
-404.2381672292186
 30
0.0
 10
893.4579630479152
 20
-404.4455371089383
 30
0.0
 10
894.1094449246104
 20
-404.7550393788616
 30
0.0
 10
894.4954332054467
 20
-405.0492877725659
 30
0.0
 10
894.6897054583391
 20
-405.1973863155125
 30
0.0
 11
892.106808351025
 21
-404.1973863155125
 31
0.0
 11
892.7727651851759
 21
-404.263460967163
 31
0.0
 11
893.4447960359505
 21
-404.4587735279866
 31
0.0
 11
894.0932981390283
 21
-404.7747213461045
 31
0.0
 11
894.6897054583391
 21
-405.1973863155125
 31
0.0
  0
SPLINE
  5
273
330
1F
100
AcDbEntity
  8
0
  6
Continuous
 62
     7
100
AcDbSpline
210
0.0
220
0.0
230
1.0
 70
     8
 71
     3
 72
    21
 73
    17
 74
    15
 42
0.000000001
 43
0.0000000001
 44
0.00000001
 40
0.0
 40
0.0
 40
0.0
 40
0.0
 40
0.484626455555264
 40
0.9597597624847346
 40
1.190619056941287
 40
1.454205334973859
 40
1.692560882269516
 40
1.957223288882675
 40
2.20566205394616
 40
2.466677809407798
 40
2.754668530621355
 40
2.985594905656772
 40
3.348539472729352
 40
3.63605518242908
 40
3.846348941279309
 40
4.044940208318286
 40
4.044940208318286
 40
4.044940208318286
 40
4.044940208318286
 10
885.479954158497
 20
-399.6973863155125
 30
0.0
 10
885.3304464070512
 20
-399.7586535300979
 30
0.0
 10
885.0343595487213
 20
-399.8799878176143
 30
0.0
 10
884.6771152389006
 20
-400.053476531156
 30
0.0
 10
884.3913171960911
 20
-400.2044038938836
 30
0.0
 10
884.1785735657639
 20
-400.3245234466794
 30
0.0
 10
883.959886618307
 20
-400.4567787391969
 30
0.0
 10
883.7499184981639
 20
-400.5934747659035
 30
0.0
 10
883.5392069023511
 20
-400.7425453470288
 30
0.0
 10
883.3292440885716
 20
-400.9057093147812
 30
0.0
 10
883.133483538479
 20
-401.0771896386889
 30
0.0
 10
882.9269840112185
 20
-401.2865459648361
 30
0.0
 10
882.7425489744113
 20
-401.5172081859919
 30
0.0
 10
882.6065849359188
 20
-401.7714119506246
 30
0.0
 10
882.5353784176698
 20
-401.9945851899319
 30
0.0
 10
882.5272609808924
 20
-402.1310882008332
 30
0.0
 10
882.5233184321079
 20
-402.1973863155125
 30
0.0
 11
885.479954158497
 21
-399.6973863155125
 31
0.0
 11
885.0334991526679
 21
-399.8859087807289
 31
0.0
 11
884.6055106884729
 21
-400.0922520249077
 31
0.0
 11
884.4014435868463
 21
-400.200199382009
 31
0.0
 11
884.1719475122619
 21
-400.3298499806269
 31
0.0
 11
883.9680520957602
 21
-400.4533004809704
 31
0.0
 11
883.746370846855
 21
-400.5978813002551
 31
0.0
 11
883.5437087913981
 21
-400.741582069883
 31
0.0
 11
883.33787253853
 21
-400.9020833517774
 31
0.0
 11
883.1218510896307
 21
-401.0925390918245
 31
0.0
 11
882.960134416196
 21
-401.2573866214598
 31
0.0
 11
882.7371534135157
 21
-401.5437574132393
 31
0.0
 11
882.6036380989839
 21
-401.7983923340125
 31
0.0
 11
882.5430935593665
 21
-401.9997820682639
 31
0.0
 11
882.5233184321079
 21
-402.1973863155125
 31
0.0
  0
SPLINE
  5
274
330
1F
100
AcDbEntity
  8
0
  6
Continuous
 62
     7
100
AcDbSpline
210
0.0
220
0.0
230
1.0
 70
     8
 71
     3
 72
    13
 73
     9
 74
     7
 42
0.000000001
 43
0.0000000001
 44
0.00000001
 40
0.0
 40
0.0
 40
0.0
 40
0.0
 40
0.4903620139793437
 40
0.9161032695304048
 40
1.107798322886692
 40
1.284288309412625
 40
1.445760335277437
 40
1.596841441369317
 40
1.596841441369317
 40
1.596841441369317
 40
1.596841441369317
 10
885.479954158497
 20
-399.6973863155125
 30
0.0
 10
885.6313432167635
 20
-399.6357639495062
 30
0.0
 10
885.9141710148167
 20
-399.5206399072159
 30
0.0
 10
886.2542080537601
 20
-399.3764698894068
 30
0.0
 10
886.5032910955547
 20
-399.286604523136
 30
0.0
 10
886.6728568364842
 20
-399.2372808854753
 30
0.0
 10
886.833039612098
 20
-399.2041120770399
 30
0.0
 10
886.9372730707967
 20
-399.1995779845949
 30
0.0
 10
886.9876571650749
 20
-399.1973863155125
 30
0.0
 11
885.479954158497
 21
-399.6973863155125
 31
0.0
 11
885.9336539481272
 21
-399.5113449152041
 31
0.0
 11
886.3280406519419
 21
-399.3509867440033
 31
0.0
 11
886.508700899006
 21
-399.2868862919731
 31
0.0
 11
886.678346814373
 21
-399.23821415224
 31
0.0
 11
886.8369391932472
 21
-399.2078550466962
 31
0.0
 11
886.9876571650749
 21
-399.1973863155125
 31
0.0
  0
SPLINE
  5
275
330
1F
100
AcDbEntity
  8
0
  6
Continuous
 62
     7
100
AcDbSpline
210
0.0
220
0.0
230
1.0
 70
     8
 71
     3
 72
    21
 73
    17
 74
    15
 42
0.000000001
 43
0.0000000001
 44
0.00000001
 40
0.0
 40
0.0
 40
0.0
 40
0.0
 40
0.1985912670049604
 40
0.4088850258123897
 40
0.6964007354967886
 40
1.059345302553062
 40
1.290271677556687
 40
1.578262398751973
 40
1.831173233675147
 40
2.087717492918339
 40
2.352379899518743
 40
2.590735446779031
 40
2.854321724766308
 40
3.085181019222146
 40
3.560314326161611
 40
4.044940782011008
 40
4.044940782011008
 40
4.044940782011008
 40
4.044940782011008
 10
873.1558214345099
 20
-402.1973863155125
 30
0.0
 10
873.1518788858148
 20
-402.1310882010683
 30
0.0
 10
873.1437614492211
 20
-401.9945851906529
 30
0.0
 10
873.0725549293969
 20
-401.7714119473135
 30
0.0
 10
872.9365909001028
 20
-401.5172082060167
 30
0.0
 10
872.7521558238826
 20
-401.2865458845828
 30
0.0
 10
872.5456564062727
 20
-401.0771898372253
 30
0.0
 10
872.3519297274221
 20
-400.9074903947724
 30
0.0
 10
872.1421130561375
 20
-400.7441505538797
 30
0.0
 10
871.9314852070543
 20
-400.5949491432502
 30
0.0
 10
871.7192534788461
 20
-400.4567787579625
 30
0.0
 10
871.5005662349288
 20
-400.324523441458
 30
0.0
 10
871.2878226863129
 20
-400.2044038952795
 30
0.0
 10
871.0020246192475
 20
-400.0534765305829
 30
0.0
 10
870.6447803209219
 20
-399.8799878179279
 30
0.0
 10
870.3486934606104
 20
-399.758653530215
 30
0.0
 10
870.199185708121
 20
-399.6973863155125
 30
0.0
 11
873.1558214345099
 21
-402.1973863155125
 31
0.0
 11
873.1360463072577
 21
-401.9997820682975
 31
0.0
 11
873.0755017676619
 21
-401.7983923340842
 31
0.0
 11
872.9419864531524
 21
-401.5437574133167
 31
0.0
 11
872.719005450495
 21
-401.25738662154
 31
0.0
 11
872.5572887770888
 21
-401.0925390919213
 31
0.0
 11
872.3412673282099
 21
-400.9020833518787
 31
0.0
 11
872.1419419684511
 21
-400.7464128945971
 31
0.0
 11
871.9327690199369
 21
-400.5978813003732
 31
0.0
 11
871.7110877710468
 21
-400.4533004810888
 31
0.0
 11
871.5071923545789
 21
-400.3298499807576
 31
0.0
 11
871.2776962800383
 21
-400.2001993821543
 31
0.0
 11
871.0736291784159
 21
-400.0922520250466
 31
0.0
 11
870.6456407142172
 21
-399.8859087808526
 31
0.0
 11
870.199185708121
 21
-399.6973863155125
 31
0.0
  0
SPLINE
  5
276
330
1F
100
AcDbEntity
  8
0
  6
Continuous
 62
     7
100
AcDbSpline
210
0.0
220
0.0
230
1.0
 70
     8
 71
     3
 72
    11
 73
     7
 74
     5
 42
0.000000001
 43
0.0000000001
 44
0.00000001
 40
0.0
 40
0.0
 40
0.0
 40
0.0
 40
0.7309906745387065
 40
1.4523629772072
 40
2.152200428392107
 40
2.821427118722627
 40
2.821427118722627
 40
2.821427118722627
 40
2.821427118722627
 10
860.989434408278
 20
-405.1973863155125
 30
0.0
 10
861.1837066611707
 20
-405.0492877725659
 30
0.0
 10
861.5696949420071
 20
-404.7550393788615
 30
0.0
 10
862.2211768187021
 20
-404.4455371089383
 30
0.0
 10
862.8919190328287
 20
-404.2381672292187
 30
0.0
 10
863.3489334666565
 20
-404.2107758011916
 30
0.0
 10
863.572331515593
 20
-404.1973863155125
 30
0.0
 11
860.989434408278
 21
-405.1973863155125
 31
0.0
 11
861.5858417275887
 21
-404.7747213461045
 31
0.0
 11
862.234343830667
 21
-404.4587735279866
 31
0.0
 11
862.9063746814415
 21
-404.263460967163
 31
0.0
 11
863.572331515593
 21
-404.1973863155125
 31
0.0
  0
SPLINE
  5
277
330
1F
100
AcDbEntity
  8
0
  6
Continuous
 62
     7
100
AcDbSpline
210
0.0
220
0.0
230
1.0
 70
     8
 71
     3
 72
    13
 73
     9
 74
     7
 42
0.000000001
 43
0.0000000001
 44
0.00000001
 40
0.0
 40
0.0
 40
0.0
 40
0.0
 40
0.151081106091191
 40
0.3125531319558011
 40
0.489043118481812
 40
0.6807381718380303
 40
1.106479427389998
 40
1.596841441369488
 40
1.596841441369488
 40
1.596841441369488
 40
1.596841441369488
 10
868.6914827015429
 20
-399.1973863155125
 30
0.0
 10
868.7418667958208
 20
-399.1995779845949
 30
0.0
 10
868.8461002545195
 20
-399.2041120770396
 30
0.0
 10
869.0062830301326
 20
-399.2372808854754
 30
0.0
 10
869.1758487710624
 20
-399.2866045231358
 30
0.0
 10
869.424931812857
 20
-399.3764698894068
 30
0.0
 10
869.7649688518009
 20
-399.520639907216
 30
0.0
 10
870.0477966498541
 20
-399.635763949506
 30
0.0
 10
870.199185708121
 20
-399.6973863155125
 30
0.0
 11
868.6914827015429
 21
-399.1973863155125
 31
0.0
 11
868.8422006733699
 21
-399.2078550466961
 31
0.0
 11
869.0007930522439
 21
-399.23821415224
 31
0.0
 11
869.170438967611
 21
-399.286886291973
 31
0.0
 11
869.351099214675
 21
-399.3509867440033
 31
0.0
 11
869.7454859184905
 21
-399.5113449152042
 31
0.0
 11
870.199185708121
 21
-399.6973863155125
 31
0.0
  0
SPLINE
  5
278
330
1F
100
AcDbEntity
  8
0
  6
Continuous
 62
     7
100
AcDbSpline
210
0.0
220
0.0
230
1.0
 70
     8
 71
     3
 72
    11
 73
     7
 74
     5
 42
0.000000001
 43
0.0000000001
 44
0.00000001
 40
0.0
 40
0.0
 40
0.0
 40
0.0
 40
0.5616698755565371
 40
1.135640618276669
 40
1.735680579072348
 40
2.369680620723236
 40
2.369680620723236
 40
2.369680620723236
 40
2.369680620723236
 10
898.4409941523749
 20
-419.1973863155126
 30
0.0
 10
898.3251550203992
 20
-419.3460780424674
 30
0.0
 10
898.0909398072876
 20
-419.6467179139386
 30
0.0
 10
897.5931115840332
 20
-419.9599377843091
 30
0.0
 10
897.0185946876952
 20
-420.1622824599245
 30
0.0
 10
896.6059801557492
 20
-420.185472311425
 30
0.0
 10
896.3939954299229
 20
-420.1973863155125
 30
0.0
 11
898.4409941523749
 21
-419.1973863155126
 31
0.0
 11
898.0710923075079
 21
-419.6200512849204
 31
0.0
 11
897.5919061298599
 21
-419.9359991030382
 31
0.0
 11
897.0245429649744
 21
-420.131311663862
 31
0.0
 11
896.3939954299229
 21
-420.1973863155125
 31
0.0
  0
SPLINE
  5
279
330
1F
100
AcDbEntity
  8
0
  6
Continuous
 62
     2
100
AcDbSpline
210
0.0
220
0.0
230
1.0
 70
     8
 71
     3
 72
    11
 73
     7
 74
     5
 42
0.000000001
 43
0.0000000001
 44
0.00000001
 40
0.0
 40
0.0
 40
0.0
 40
0.0
 40
0.1521686129491576
 40
0.3054147609973532
 40
0.4595213089603104
 40
0.6140021305891765
 40
0.6140021305891765
 40
0.6140021305891765
 40
0.6140021305891765
 10
898.1276735906509
 20
-424.3138411577722
 30
0.0
 10
898.0774130375382
 20
-424.3206739447146
 30
0.0
 10
897.9765360287372
 20
-424.334387917762
 30
0.0
 10
897.8247861382099
 20
-424.3552250246966
 30
0.0
 10
897.672284290589
 20
-424.3762511279771
 30
0.0
 10
897.5703906492178
 20
-424.3903355538912
 30
0.0
 10
897.519382038134
 20
-424.3973863155125
 30
0.0
 11
898.1276735906509
 21
-424.3138411577722
 31
0.0
 11
897.976896512212
 21
-424.3343730691932
 31
0.0
 11
897.8250721923399
 21
-424.3551999218184
 31
0.0
 11
897.6724090903831
 21
-424.3762428643133
 31
0.0
 11
897.519382038134
 21
-424.3973863155125
 31
0.0
  0
SPLINE
  5
27A
330
1F
100
AcDbEntity
  8
0
  6
Continuous
 62
     2
100
AcDbSpline
210
0.0
220
0.0
230
1.0
 70
    24
 71
     3
 72
    15
 73
    11
 74
     9
 42
0.000000001
 43
0.0000000001
 44
0.00000001
 40
0.0
 40
0.0
 40
0.0
 40
0.0
 40
0.1177292231594151
 40
0.2328948893388088
 40
0.4115811024248046
 40
0.5656854039210657
 40
0.6860034510983724
 40
0.7653495548323122
 40
0.7826747774161618
 40
0.8000000000000114
 40
0.8000000000000114
 40
0.8000000000000114
 40
0.8000000000000114
 10
897.519382038134
 20
-424.3973863155125
 30
0.0
 10
897.5193820381338
 20
-424.4366293898989
 30
0.0
 10
897.5193820381337
 20
-424.5142610196788
 30
0.0
 10
897.5193820381335
 20
-424.6514547204868
 30
0.0
 10
897.5193820381332
 20
-424.8007734474072
 30
0.0
 10
897.5193820381337
 20
-424.9518096346607
 30
0.0
 10
897.5193820381343
 20
-425.0697324521296
 30
0.0
 10
897.5193820381337
 20
-425.1420622432948
 30
0.0
 10
897.5193820381342
 20
-425.1800610929287
 30
0.0
 10
897.519382038134
 20
-425.1916112413179
 30
0.0
 10
897.519382038134
 20
-425.1973863155125
 30
0.0
 11
897.519382038134
 21
-424.3973863155125
 31
0.0
 11
897.5193820381337
 21
-424.515115538672
 31
0.0
 11
897.519382038134
 21
-424.6302812048514
 31
0.0
 11
897.5193820381339
 21
-424.8089674179374
 31
0.0
 11
897.519382038134
 21
-424.9630717194336
 31
0.0
 11
897.5193820381339
 21
-425.0833897666109
 31
0.0
 11
897.519382038134
 21
-425.1627358703449
 31
0.0
 11
897.5193820381339
 21
-425.1800610929287
 31
0.0
 11
897.519382038134
 21
-425.1973863155125
 31
0.0
  0
SPLINE
  5
27B
330
1F
100
AcDbEntity
  8
0
  6
Continuous
 62
     7
100
AcDbSpline
210
0.0
220
0.0
230
1.0
 70
     8
 71
     3
 72
    11
 73
     7
 74
     5
 42
0.000000001
 43
0.0000000001
 44
0.00000001
 40
0.0
 40
0.0
 40
0.0
 40
0.0
 40
0.0300007697925965
 40
0.0688384591485472
 40
0.1210532305525918
 40
0.1879775637502375
 40
0.1879775637502375
 40
0.1879775637502375
 40
0.1879775637502375
 10
900.569730296067
 20
-424.1903310794305
 30
0.0
 10
900.5651099993553
 20
-424.1812296770045
 30
0.0
 10
900.554508453967
 20
-424.1603460056118
 30
0.0
 10
900.5170670179756
 20
-424.1408234991994
 30
0.0
 10
900.467278028113
 20
-424.1248766803875
 30
0.0
 10
900.4278583420246
 20
-424.1188855603554
 30
0.0
 10
900.4057150140949
 20
-424.1155201507308
 30
0.0
 11
900.569730296067
 21
-424.1903310794305
 31
0.0
 11
900.5538390052036
 21
-424.1648847965829
 31
0.0
 11
900.5211072756789
 21
-424.1439802329521
 31
0.0
 11
900.4715545940493
 21
-424.1275207664909
 31
0.0
 11
900.4057150140949
 21
-424.1155201507308
 31
0.0
  0
SPLINE
  5
27C
330
1F
100
AcDbEntity
  8
0
  6
Continuous
 62
     7
100
AcDbSpline
210
0.0
220
0.0
230
1.0
 70
     8
 71
     3
 72
    11
 73
     7
 74
     5
 42
0.000000001
 43
0.0000000001
 44
0.00000001
 40
0.0
 40
0.0
 40
0.0
 40
0.0
 40
0.1905855458107876
 40
0.3990746305632482
 40
0.6261779408894361
 40
0.8674505863151825
 40
0.8674505863151825
 40
0.8674505863151825
 40
0.8674505863151825
 10
899.880604538377
 20
-424.1151639989815
 30
0.0
 10
899.8172283754185
 20
-424.1195892700733
 30
0.0
 10
899.6845225162456
 20
-424.1288555359614
 30
0.0
 10
899.4766893659287
 20
-424.1483000697687
 30
0.0
 10
899.2522826657021
 20
-424.1717103798688
 30
0.0
 10
899.0972113416648
 20
-424.1898354536976
 30
0.0
 10
899.017330067409
 20
-424.1991721585843
 30
0.0
 11
899.880604538377
 21
-424.1151639989815
 31
0.0
 11
899.6905330674864
 21
-424.1291527901205
 31
0.0
 11
899.4829044051809
 21
-424.1480746596315
 31
0.0
 11
899.2570304788159
 21
-424.1716730286786
 31
0.0
 11
899.017330067409
 21
-424.1991721585843
 31
0.0
  0
SPLINE
  5
27D
330
1F
100
AcDbEntity
  8
0
  6
Continuous
 62
     7
100
AcDbSpline
210
0.0
220
0.0
230
1.0
 70
     8
 71
     3
 72
    11
 73
     7
 74
     5
 42
0.000000001
 43
0.0000000001
 44
0.00000001
 40
0.0
 40
0.0
 40
0.0
 40
0.0
 40
0.0999243958698238
 40
0.2208889740810024
 40
0.3637234915494296
 40
0.5257578580677686
 40
0.5257578580677686
 40
0.5257578580677686
 40
0.5257578580677686
 10
900.4057150140949
 20
-424.1155201507308
 30
0.0
 10
900.3725609750697
 20
-424.1121763868372
 30
0.0
 10
900.2992719475214
 20
-424.1047848084701
 30
0.0
 10
900.1779186222493
 20
-424.1034016646097
 30
0.0
 10
900.0360029531935
 20
-424.1062573854084
 30
0.0
 10
899.9345340913895
 20
-424.1120730378242
 30
0.0
 10
899.880604538377
 20
-424.1151639989815
 30
0.0
 11
900.4057150140949
 21
-424.1155201507308
 31
0.0
 11
900.3061692494687
 21
-424.1068295957215
 31
0.0
 11
900.1852362032859
 21
-424.1040677302077
 31
0.0
 11
900.0424308973959
 21
-424.1069563945425
 31
0.0
 11
899.880604538377
 21
-424.1151639989815
 31
0.0
  0
SPLINE
  5
27E
330
1F
100
AcDbEntity
  8
0
  6
Continuous
 62
     7
100
AcDbSpline
210
0.0
220
0.0
230
1.0
 70
     8
 71
     3
 72
    11
 73
     7
 74
     5
 42
0.000000001
 43
0.0000000001
 44
0.00000001
 40
0.0
 40
0.0
 40
0.0
 40
0.0
 40
0.2139015717828955
 40
0.4351358403299618
 40
0.6636949319637396
 40
0.8970251245503706
 40
0.8970251245503706
 40
0.8970251245503706
 40
0.8970251245503706
 10
899.017330067409
 20
-424.1991721585843
 30
0.0
 10
898.9465447180824
 20
-424.2077294047861
 30
0.0
 10
898.8025474495591
 20
-424.2251372606349
 30
0.0
 10
898.5831019032838
 20
-424.2532031117306
 30
0.0
 10
898.357331064806
 20
-424.2828430507075
 30
0.0
 10
898.2047514401612
 20
-424.3034375399355
 30
0.0
 10
898.1276735906509
 20
-424.3138411577722
 30
0.0
 11
899.017330067409
 21
-424.1991721585843
 31
0.0
 11
898.805003742595
 21
-424.2250838204029
 31
0.0
 11
898.5855395083751
 21
-424.2530132225265
 31
0.0
 11
898.3589259659475
 21
-424.2827715957307
 31
0.0
 11
898.1276735906509
 21
-424.3138411577722
 31
0.0
  0
SPLINE
  5
27F
330
1F
100
AcDbEntity
  8
0
  6
Continuous
 62
     7
100
AcDbSpline
210
0.0
220
0.0
230
1.0
 70
     8
 71
     3
 72
    11
 73
     7
 74
     5
 42
0.000000001
 43
0.0000000001
 44
0.00000001
 40
0.0
 40
0.0
 40
0.0
 40
0.0
 40
0.0215075561107113
 40
0.0456036849542158
 40
0.0741748351431848
 40
0.1083183913689851
 40
0.1083183913689851
 40
0.1083183913689851
 40
0.1083183913689851
 10
945.4895699333091
 20
-424.3973863155125
 30
0.0
 10
945.4904001995121
 20
-424.3901887283918
 30
0.0
 10
945.492160674366
 20
-424.3749272811157
 30
0.0
 10
945.5054754404734
 20
-424.3533618590122
 30
0.0
 10
945.5255020950021
 20
-424.3323513618928
 30
0.0
 10
945.5427062513994
 20
-424.3203661958729
 30
0.0
 10
945.5520726566309
 20
-424.3138411577743
 30
0.0
 11
945.4895699333091
 21
-424.3973863155125
 31
0.0
 11
945.4934899513908
 21
-424.3762390094344
 31
0.0
 11
945.505236459153
 21
-424.3551999218196
 31
0.0
 11
945.524784490545
 21
-424.3343628089895
 31
0.0
 11
945.5520726566309
 21
-424.3138411577743
 31
0.0
  0
SPLINE
  5
280
330
1F
100
AcDbEntity
  8
0
  6
Continuous
 62
     2
100
AcDbSpline
210
0.0
220
0.0
230
1.0
 70
     8
 71
     3
 72
    11
 73
     7
 74
     5
 42
0.000000001
 43
0.0000000001
 44
0.00000001
 40
0.0
 40
0.0
 40
0.0
 40
0.0
 40
0.2430621158835445
 40
0.4590893297521503
 40
0.6844319327297265
 40
0.9060914757105986
 40
0.9060914757105986
 40
0.9060914757105986
 40
0.9060914757105986
 10
970.9895699333091
 20
-424.1903310794305
 30
0.0
 10
971.0700637983249
 20
-424.1810789342361
 30
0.0
 10
971.2220984944211
 20
-424.1636037402085
 30
0.0
 10
971.4493409364243
 20
-424.1431614692955
 30
0.0
 10
971.6697570985402
 20
-424.1267480620334
 30
0.0
 10
971.818573477428
 20
-424.119242168008
 30
0.0
 10
971.8923685833701
 20
-424.1155201507308
 30
0.0
 11
970.9895699333091
 21
-424.1903310794305
 31
0.0
 11
971.2311609531124
 21
-424.1636295557125
 31
0.0
 11
971.446292683276
 21
-424.1439802329521
 31
0.0
 11
971.6710363486064
 21
-424.1275615332715
 31
0.0
 11
971.8923685833701
 21
-424.1155201507308
 31
0.0
  0
SPLINE
  5
281
330
1F
100
AcDbEntity
  8
0
  6
Continuous
 62
     2
100
AcDbSpline
210
0.0
220
0.0
230
1.0
 70
     8
 71
     3
 72
    11
 73
     7
 74
     5
 42
0.000000001
 43
0.0000000001
 44
0.00000001
 40
0.0
 40
0.0
 40
0.0
 40
0.0
 40
0.2553901115692715
 40
0.5018393170600691
 40
0.7544733213202617
 40
0.9575284022570683
 40
0.9575284022570683
 40
0.9575284022570683
 40
0.9575284022570683
 10
971.8923685833701
 20
-424.1155201507308
 30
0.0
 10
971.9774386837524
 20
-424.1122150448139
 30
0.0
 10
972.1446006812795
 20
-424.1057205557843
 30
0.0
 10
972.3961047009061
 20
-424.103206772509
 30
0.0
 10
972.6301747759267
 20
-424.1057158525582
 30
0.0
 10
972.7819380164532
 20
-424.1122516431622
 30
0.0
 10
972.8495637243501
 20
-424.1151639989815
 30
0.0
 11
971.8923685833701
 21
-424.1155201507308
 31
0.0
 11
972.1476116112747
 21
-424.1068537902179
 31
0.0
 11
972.394045068554
 21
-424.1040677302077
 31
0.0
 11
972.6466570779278
 21
-424.1074013448994
 31
0.0
 11
972.8495637243501
 21
-424.1151639989815
 31
0.0
  0
SPLINE
  5
282
330
1F
100
AcDbEntity
  8
0
  6
Continuous
 62
     2
100
AcDbSpline
210
0.0
220
0.0
230
1.0
 70
     8
 71
     3
 72
    11
 73
     7
 74
     5
 42
0.000000001
 43
0.0000000001
 44
0.00000001
 40
0.0
 40
0.0
 40
0.0
 40
0.0
 40
0.2146596859865706
 40
0.4115994431113493
 40
0.5884501211447077
 40
0.7445131425206588
 40
0.7445131425206588
 40
0.7445131425206588
 40
0.7445131425206588
 10
972.8495637243501
 20
-424.1151639989815
 30
0.0
 10
972.9210040457733
 20
-424.1193118881936
 30
0.0
 10
973.057987365018
 20
-424.1272652775378
 30
0.0
 10
973.2532335196481
 20
-424.1463952000405
 30
0.0
 10
973.4284990843746
 20
-424.1688614090687
 30
0.0
 10
973.5375561820147
 20
-424.1894980998225
 30
0.0
 10
973.58867988094
 20
-424.1991721585843
 30
0.0
 11
972.8495637243501
 21
-424.1151639989815
 31
0.0
 11
973.0637716112338
 21
-424.129083836904
 31
0.0
 11
973.2597935914949
 21
-424.1480746596315
 31
0.0
 11
973.4350748556304
 21
-424.1715829768091
 31
0.0
 11
973.58867988094
 21
-424.1991721585843
 31
0.0
  0
SPLINE
  5
283
330
1F
100
AcDbEntity
  8
0
  6
Continuous
 62
     2
100
AcDbSpline
210
0.0
220
0.0
230
1.0
 70
     8
 71
     3
 72
    11
 73
     7
 74
     5
 42
0.000000001
 43
0.0000000001
 44
0.00000001
 40
0.0
 40
0.0
 40
0.0
 40
0.0
 40
0.1030125778823211
 40
0.2117132968433136
 40
0.2856624811439094
 40
0.3588887016243118
 40
0.3588887016243118
 40
0.3588887016243118
 40
0.3588887016243118
 10
973.58867988094
 20
-424.1991721585843
 30
0.0
 10
973.6222396590962
 20
-424.2064965871335
 30
0.0
 10
973.6912123133636
 20
-424.2215498983196
 30
0.0
 10
973.782586123753
 20
-424.2484407351401
 30
0.0
 10
973.8629772443368
 20
-424.2776741765409
 30
0.0
 10
973.9057739665822
 20
-424.3018250381248
 30
0.0
 10
973.927067209985
 20
-424.3138411577722
 30
0.0
 11
973.58867988094
 21
-424.1991721585843
 31
0.0
 11
973.6890626390187
 21
-424.2222999015271
 31
0.0
 11
973.793334105388
 21
-424.2530132225265
 31
0.0
 11
973.8623352060971
 21
-424.2796089041555
 31
0.0
 11
973.927067209985
 21
-424.3138411577722
 31
0.0
  0
SPLINE
  5
284
330
1F
100
AcDbEntity
  8
0
  6
Continuous
 62
     7
100
AcDbSpline
210
0.0
220
0.0
230
1.0
 70
     8
 71
     3
 72
    11
 73
     7
 74
     5
 42
0.000000001
 43
0.0000000001
 44
0.00000001
 40
0.0
 40
0.0
 40
0.0
 40
0.0
 40
0.0320767713082794
 40
0.0627110639045885
 40
0.0853418011216275
 40
0.1083077326701189
 40
0.1083077326701189
 40
0.1083077326701189
 40
0.1083077326701189
 10
973.927067209985
 20
-424.3138411577722
 30
0.0
 10
973.935870293921
 20
-424.3199547809714
 30
0.0
 10
973.9530805824721
 20
-424.3319071110596
 30
0.0
 10
973.9729533296111
 20
-424.3524240053614
 30
0.0
 10
973.9867514585537
 20
-424.3744360753776
 30
0.0
 10
973.9886258533202
 20
-424.3896988341642
 30
0.0
 10
973.9895699333091
 20
-424.3973863155125
 30
0.0
 11
973.927067209985
 21
-424.3138411577722
 31
0.0
 11
973.9527942868334
 21
-424.3329993561022
 31
0.0
 11
973.973903407465
 21
-424.3551999218184
 31
0.0
 11
973.985119456655
 21
-424.3748557274081
 31
0.0
 11
973.9895699333091
 21
-424.3973863155125
 31
0.0
  0
SPLINE
  5
285
330
1F
100
AcDbEntity
  8
0
  6
Continuous
 62
     7
100
AcDbSpline
210
0.0
220
0.0
230
1.0
 70
     8
 71
     3
 72
    15
 73
    11
 74
     9
 42
0.000000001
 43
0.0000000001
 44
0.00000001
 40
0.0
 40
0.0
 40
0.0
 40
0.0
 40
0.0006740949883009
 40
0.0013635705878701
 40
0.0020822515589363
 40
0.002842499300405
 40
0.0036549005039323
 40
0.0045282593560996
 40
0.0054697757843048
 40
0.0064852990405882
 40
0.0064852990405882
 40
0.0064852990405882
 40
0.0064852990405882
 10
945.639569933309
 20
-397.6973863155125
 30
0.0
 10
945.6395796931747
 20
-397.6971614190434
 30
0.0
 10
945.6395994499482
 20
-397.6967064958087
 30
0.0
 10
945.639758292633
 20
-397.6960270590296
 30
0.0
 10
945.6400110936656
 20
-397.6953483231673
 30
0.0
 10
945.6403672711236
 20
-397.6946704700729
 30
0.0
 10
945.640823590458
 20
-397.6939931031834
 30
0.0
 10
945.641381580862
 20
-397.6933167694091
 30
0.0
 10
945.6420381697942
 20
-397.6926375345725
 30
0.0
 10
945.6425308336337
 20
-397.6922095586208
 30
0.0
 10
945.64278648528
 20
-397.6919874835631
 30
0.0
 11
945.639569933309
 21
-397.6973863155125
 31
0.0
 11
945.6396198107055
 21
-397.6967140654459
 31
0.0
 11
945.6397696617049
 21
-397.6960410680623
 31
0.0
 11
945.6400198140357
 21
-397.6953673250487
 31
0.0
 11
945.640370594121
 21
-397.6946928380356
 31
0.0
 11
945.6408223275391
 21
-397.6940176087351
 31
0.0
 11
945.641375338534
 21
-397.6933416387564
 31
0.0
 11
945.6420299504517
 21
-397.692664929834
 31
0.0
 11
945.64278648528
 21
-397.6919874835631
 31
0.0
  0
SPLINE
  5
286
330
1F
100
AcDbEntity
  8
0
  6
Continuous
 62
     2
100
AcDbSpline
210
0.0
220
0.0
230
1.0
 70
     8
 71
     3
 72
    11
 73
     7
 74
     5
 42
0.000000001
 43
0.0000000001
 44
0.00000001
 40
0.0
 40
0.0
 40
0.0
 40
0.0
 40
0.139315103620701
 40
0.332913701637309
 40
0.5109410170768651
 40
0.7445129880030256
 40
0.7445129880030256
 40
0.7445129880030256
 40
0.7445129880030256
 10
945.8904599856779
 20
-424.199172158584
 30
0.0
 10
945.9360824077646
 20
-424.1904657779795
 30
0.0
 10
946.0451038234953
 20
-424.1696606317636
 30
0.0
 10
946.2140970970099
 20
-424.1477507154717
 30
0.0
 10
946.4148597562909
 20
-424.1277496217593
 30
0.0
 10
946.55184216213
 20
-424.1197203789986
 30
0.0
 10
946.629576142266
 20
-424.1151639989819
 30
0.0
 11
945.8904599856779
 21
-424.199172158584
 31
0.0
 11
946.0275180426593
 21
-424.1741964259928
 31
0.0
 11
946.219346275123
 21
-424.1480746596313
 31
0.0
 11
946.3965166436572
 21
-424.1306280073703
 31
0.0
 11
946.629576142266
 21
-424.1151639989819
 31
0.0
  0
SPLINE
  5
287
330
1F
100
AcDbEntity
  8
0
  6
Continuous
 62
     2
100
AcDbSpline
210
0.0
220
0.0
230
1.0
 70
     8
 71
     3
 72
    11
 73
     7
 74
     5
 42
0.000000001
 43
0.0000000001
 44
0.00000001
 40
0.0
 40
0.0
 40
0.0
 40
0.0
 40
0.0585190880804304
 40
0.1471866755728003
 40
0.2558873945335933
 40
0.3588999751032654
 40
0.3588999751032654
 40
0.3588999751032654
 40
0.3588999751032654
 10
945.5520726566309
 20
-424.3138411577743
 30
0.0
 10
945.5689837431813
 20
-424.3040689486835
 30
0.0
 10
945.6115183618117
 20
-424.2794899929068
 30
0.0
 10
945.6918653450841
 20
-424.249820684531
 30
0.0
 10
945.7879225827062
 20
-424.2215513132922
 30
0.0
 10
945.8568985804302
 20
-424.2064970509373
 30
0.0
 10
945.8904599856779
 20
-424.199172158584
 30
0.0
 11
945.5520726566309
 21
-424.3138411577743
 31
0.0
 11
945.6033877931859
 21
-424.2857121592355
 31
0.0
 11
945.6858057612279
 21
-424.2530132225274
 31
0.0
 11
945.7900772276082
 21
-424.2222999015247
 31
0.0
 11
945.8904599856779
 21
-424.199172158584
 31
0.0
  0
SPLINE
  5
288
330
1F
100
AcDbEntity
  8
0
  6
Continuous
 62
     7
100
AcDbSpline
210
0.0
220
0.0
230
1.0
 70
    24
 71
     3
 72
    15
 73
    11
 74
     9
 42
0.000000001
 43
0.0000000001
 44
0.00000001
 40
0.0
 40
0.0
 40
0.0
 40
0.0
 40
0.1681480226870917
 40
0.3380569751766416
 40
0.5255725913058882
 40
0.6940643175261698
 40
0.83346853426508
 40
0.9354592991289223
 40
0.9712572676054947
 40
1.00705523608201
 40
1.00705523608201
 40
1.00705523608201
 40
1.00705523608201
 10
948.4895699333091
 20
-424.1903310794305
 30
0.0
 10
948.4895699333089
 20
-424.2463804203261
 30
0.0
 10
948.4895699333086
 20
-424.3590660787184
 30
0.0
 10
948.4895699333086
 20
-424.534256942487
 30
0.0
 10
948.4895699333086
 20
-424.7095623741001
 30
0.0
 10
948.489569933309
 20
-424.8746995604629
 30
0.0
 10
948.4895699333086
 20
-425.0113284630706
 30
0.0
 10
948.4895699333094
 20
-425.103726113097
 30
0.0
 10
948.489569933309
 20
-425.1615883470359
 30
0.0
 10
948.4895699333091
 20
-425.1854536593536
 30
0.0
 10
948.4895699333091
 20
-425.1973863155125
 30
0.0
 11
948.4895699333091
 21
-424.1903310794305
 31
0.0
 11
948.4895699333089
 21
-424.3584791021178
 31
0.0
 11
948.4895699333091
 21
-424.5283880546078
 31
0.0
 11
948.4895699333091
 21
-424.7159036707374
 31
0.0
 11
948.4895699333091
 21
-424.8843953969578
 31
0.0
 11
948.4895699333091
 21
-425.0237996136965
 31
0.0
 11
948.4895699333091
 21
-425.1257903785599
 31
0.0
 11
948.4895699333091
 21
-425.1615883470362
 31
0.0
 11
948.4895699333091
 21
-425.1973863155125
 31
0.0
  0
SPLINE
  5
289
330
1F
100
AcDbEntity
  8
0
  6
Continuous
 62
     2
100
AcDbSpline
210
0.0
220
0.0
230
1.0
 70
     8
 71
     3
 72
    11
 73
     7
 74
     5
 42
0.000000001
 43
0.0000000001
 44
0.00000001
 40
0.0
 40
0.0
 40
0.0
 40
0.0
 40
0.2030550808860894
 40
0.4556890851830229
 40
0.6833286681264147
 40
0.9575282450974203
 40
0.9575282450974203
 40
0.9575282450974203
 40
0.9575282450974203
 10
946.629576142266
 20
-424.1151639989819
 30
0.0
 10
946.6972018260959
 20
-424.1122513851246
 30
0.0
 10
946.8489650126469
 20
-424.1057150154247
 30
0.0
 10
947.076765035077
 20
-424.1032781292166
 30
0.0
 10
947.3282677115815
 20
-424.1055765135941
 30
0.0
 10
947.495433613481
 20
-424.1120067371725
 30
0.0
 10
947.586771283249
 20
-424.1155201507303
 30
0.0
 11
946.629576142266
 21
-424.1151639989819
 31
0.0
 11
946.8324827886479
 21
-424.1074013449009
 31
0.0
 11
947.0850947980631
 21
-424.1040677302079
 31
0.0
 11
947.3127219865827
 21
-424.1064432008521
 31
0.0
 11
947.586771283249
 21
-424.1155201507303
 31
0.0
  0
SPLINE
  5
28A
330
1F
100
AcDbEntity
  8
0
  6
Continuous
 62
     2
100
AcDbSpline
210
0.0
220
0.0
230
1.0
 70
     8
 71
     3
 72
    11
 73
     7
 74
     5
 42
0.000000001
 43
0.0000000001
 44
0.00000001
 40
0.0
 40
0.0
 40
0.0
 40
0.0
 40
0.2084356607891019
 40
0.4470020736370774
 40
0.6922684945659991
 40
0.9060914018468579
 40
0.9060914018468579
 40
0.9060914018468579
 40
0.9060914018468579
 10
947.586771283249
 20
-424.1155201507303
 30
0.0
 10
947.6561645693113
 20
-424.1190010728819
 30
0.0
 10
947.8049823986048
 20
-424.1264661231614
 30
0.0
 10
948.0351295253583
 20
-424.1434768141957
 30
0.0
 10
948.2667420493487
 20
-424.1645820785407
 30
0.0
 10
948.4187647033112
 20
-424.1821491363959
 30
0.0
 10
948.4895699333091
 20
-424.1903310794305
 30
0.0
 11
947.586771283249
 21
-424.1155201507303
 31
0.0
 11
947.7949053938814
 21
-424.1267280369822
 31
0.0
 11
948.0328471833419
 21
-424.1439802329517
 31
0.0
 11
948.2770698665523
 21
-424.1665832934416
 31
0.0
 11
948.4895699333091
 21
-424.1903310794305
 31
0.0
  0
SPLINE
  5
28B
330
1F
100
AcDbEntity
  8
0
  6
Continuous
 62
     7
100
AcDbSpline
210
0.0
220
0.0
230
1.0
 70
     8
 71
     3
 72
    31
 73
    27
 74
    25
 42
0.000000001
 43
0.0000000001
 44
0.00000001
 40
0.0
 40
0.0
 40
0.0
 40
0.0
 40
0.0660060060480323
 40
0.1216320056404629
 40
0.1770374870210833
 40
0.2285058057947738
 40
0.2826769052589204
 40
0.3408915557098859
 40
0.3929542598875352
 40
0.4538774414427587
 40
0.5198822869547135
 40
0.6027135583924241
 40
0.7545608161084897
 40
0.8954693604477747
 40
0.961311501144112
 40
1.039955088081253
 40
1.105826381979946
 40
1.182766144877291
 40
1.340686454380837
 40
1.464136467078952
 40
1.600126771363183
 40
1.738501511048643
 40
1.866441092605007
 40
2.005331148817755
 40
2.146263072349626
 40
2.264070760212713
 40
2.264070760212713
 40
2.264070760212713
 40
2.264070760212713
 10
950.925783940631
 20
-424.1903310794305
 30
0.0
 10
950.9399322098133
 20
-424.2072286173812
 30
0.0
 10
950.9660038066368
 20
-424.2383664158291
 30
0.0
 10
950.9955581407726
 20
-424.2897934021319
 30
0.0
 10
951.0142586020286
 20
-424.3409998978718
 30
0.0
 10
951.0213177181473
 20
-424.394682842283
 30
0.0
 10
951.0155024176319
 20
-424.449515342075
 30
0.0
 10
950.9971614404654
 20
-424.5016394939793
 30
0.0
 10
950.9688574592359
 20
-424.5514106833837
 30
0.0
 10
950.9323437664461
 20
-424.5988136283294
 30
0.0
 10
950.8835813136608
 20
-424.6490823070366
 30
0.0
 10
950.8070192045878
 20
-424.7139830408972
 30
0.0
 10
950.7031301207107
 20
-424.7843597979412
 30
0.0
 10
950.5988751494942
 20
-424.8429838304965
 30
0.0
 10
950.5139683595538
 20
-424.8859095604468
 30
0.0
 10
950.4505249085435
 20
-424.9157939731062
 30
0.0
 10
950.3829703832049
 20
-424.945565767383
 30
0.0
 10
950.2903163743072
 20
-424.9838507095035
 30
0.0
 10
950.1783186060652
 20
-425.0254861086421
 30
0.0
 10
950.0460376497771
 20
-425.0686509720235
 30
0.0
 10
949.91849089839
 20
-425.1050597489229
 30
0.0
 10
949.7880992185889
 20
-425.1365507081118
 30
0.0
 10
949.65553177513
 20
-425.1626659937449
 30
0.0
 10
949.5210210757997
 20
-425.1824677028557
 30
0.0
 10
949.3889483503465
 20
-425.1950823639293
 30
0.0
 10
949.3026928441304
 20
-425.196665496223
 30
0.0
 10
949.263419531006
 20
-425.1973863155125
 30
0.0
 11
950.925783940631
 21
-424.1903310794305
 31
0.0
 11
950.9665305544233
 21
-424.2422589863136
 31
0.0
 11
950.9941497578769
 21
-424.2905438865193
 31
0.0
 11
951.0126652540115
 21
-424.3427640341177
 31
0.0
 11
951.0192101393369
 21
-424.3938145221323
 31
0.0
 11
951.0136604535982
 21
-424.4477005964784
 31
0.0
 11
950.9948220901971
 21
-424.5027829129548
 31
0.0
 11
950.9693946049412
 21
-424.5482138292343
 31
0.0
 11
950.9325478588349
 21
-424.5967313656728
 31
0.0
 11
950.8868443145452
 21
-424.644353058815
 31
0.0
 11
950.823949999755
 21
-424.698254122592
 31
0.0
 11
950.6989919304391
 21
-424.7845273544646
 31
0.0
 11
950.57640024712
 21
-424.8540003493264
 31
0.0
 11
950.5176540941995
 21
-424.8837337817293
 31
0.0
 11
950.4465251343739
 21
-424.9172820280758
 31
0.0
 11
950.3862542357119
 21
-424.9438610824188
 31
0.0
 11
950.3151532800281
 21
-424.9732614431324
 31
0.0
 11
950.1671564370155
 21
-425.0283591617235
 31
0.0
 11
950.0497965540691
 21
-425.0666548991116
 31
0.0
 11
949.9190198986016
 21
-425.1039487221638
 31
0.0
 11
949.7844977523979
 21
-425.1363734158564
 31
0.0
 11
949.6589478578815
 21
-425.160985618445
 31
0.0
 11
949.521537848571
 21
-425.1812078105854
 31
0.0
 11
949.3811741323306
 21
-425.1938503634076
 31
0.0
 11
949.263419531006
 21
-425.1973863155125
 31
0.0
  0
SPLINE
  5
28C
330
1F
100
AcDbEntity
  8
0
  6
Continuous
 62
     2
100
AcDbSpline
210
0.0
220
0.0
230
1.0
 70
     8
 71
     3
 72
    13
 73
     9
 74
     7
 42
0.000000001
 43
0.0000000001
 44
0.00000001
 40
0.0
 40
0.0
 40
0.0
 40
0.0
 40
0.2254667574209208
 40
0.5788634415607017
 40
1.082009899228173
 40
1.715464126775699
 40
2.443153209659655
 40
3.220060774604232
 40
3.220060774604232
 40
3.220060774604232
 40
3.220060774604232
 10
945.4895699333091
 20
-402.1973863155125
 30
0.0
 10
945.517769640431
 20
-402.1253685714791
 30
0.0
 10
945.5901695824581
 20
-401.9404701908165
 30
0.0
 10
945.9426448747702
 20
-401.7807982140481
 30
0.0
 10
946.4038201426458
 20
-401.6249008306112
 30
0.0
 10
947.0207036513459
 20
-401.511981895071
 30
0.0
 10
947.7285219730782
 20
-401.4351717071439
 30
0.0
 10
948.230414629459
 20
-401.4257791091958
 30
0.0
 10
948.4895699333091
 20
-401.4209291802048
 30
0.0
 11
945.4895699333091
 21
-402.1973863155125
 31
0.0
 11
945.5917932270061
 21
-401.9964244747667
 31
0.0
 11
945.8914937219555
 21
-401.8091577478586
 31
0.0
 11
946.3682501553056
 21
-401.6483483562126
 31
0.0
 11
946.989569933309
 21
-401.5249547113864
 31
0.0
 11
947.713113005009
 21
-401.4473865154667
 31
0.0
 11
948.4895699333091
 21
-401.4209291802048
 31
0.0
  0
SPLINE
  5
28D
330
1F
100
AcDbEntity
  8
0
  6
Continuous
 62
     7
100
AcDbSpline
210
0.0
220
0.0
230
1.0
 70
     8
 71
     3
 72
     9
 73
     5
 74
     3
 42
0.000000001
 43
0.0000000001
 44
0.00000001
 40
0.0
 40
0.0
 40
0.0
 40
0.0
 40
0.9630934447998409
 40
2.144497250747413
 40
2.144497250747413
 40
2.144497250747413
 40
2.144497250747413
 10
952.764569933309
 20
-425.1973863155124
 30
0.0
 10
952.4407688711502
 20
-425.1400779943967
 30
0.0
 10
951.7197687595958
 20
-425.0124709014749
 30
0.0
 10
951.2078177891365
 20
-424.4823659648795
 30
0.0
 10
950.925783940631
 20
-424.1903310794305
 30
0.0
 11
952.764569933309
 21
-425.1973863155124
 31
0.0
 11
951.8353300151514
 21
-424.9442812740914
 31
0.0
 11
950.925783940631
 21
-424.1903310794305
 31
0.0
  0
SPLINE
  5
28E
330
1F
100
AcDbEntity
  8
0
  6
Continuous
 62
     2
100
AcDbSpline
210
0.0
220
0.0
230
1.0
 70
     8
 71
     3
 72
    13
 73
     9
 74
     7
 42
0.000000001
 43
0.0000000001
 44
0.00000001
 40
0.0
 40
0.0
 40
0.0
 40
0.0
 40
0.2254667574209208
 40
0.5788634415612802
 40
1.082009899228643
 40
1.715464126775835
 40
2.44315320966013
 40
3.22006077460414
 40
3.22006077460414
 40
3.22006077460414
 40
3.22006077460414
 10
973.9895699333091
 20
-402.1973863155125
 30
0.0
 10
973.9613702261867
 20
-402.1253685714791
 30
0.0
 10
973.8889702841609
 20
-401.9404701908163
 30
0.0
 10
973.5364949918473
 20
-401.7807982140484
 30
0.0
 10
973.0753197239721
 20
-401.6249008306111
 30
0.0
 10
972.4584362152718
 20
-401.511981895071
 30
0.0
 10
971.7506178935394
 20
-401.4351717071439
 30
0.0
 10
971.248725237159
 20
-401.4257791091957
 30
0.0
 10
970.9895699333091
 20
-401.4209291802048
 30
0.0
 11
973.9895699333091
 21
-402.1973863155125
 31
0.0
 11
973.8873466396121
 21
-401.9964244747667
 31
0.0
 11
973.587646144662
 21
-401.8091577478586
 31
0.0
 11
973.110889711312
 21
-401.6483483562126
 31
0.0
 11
972.489569933309
 21
-401.5249547113864
 31
0.0
 11
971.7660268616087
 21
-401.4473865154667
 31
0.0
 11
970.9895699333091
 21
-401.4209291802048
 31
0.0
  0
SPLINE
  5
28F
330
1F
100
AcDbEntity
  8
0
  6
Continuous
 62
     2
100
AcDbSpline
210
0.0
220
0.0
230
1.0
 70
    24
 71
     3
 72
    15
 73
    11
 74
     9
 42
0.000000001
 43
0.0000000001
 44
0.00000001
 40
0.0
 40
0.0
 40
0.0
 40
0.0
 40
0.0357979684762881
 40
0.0715959369524626
 40
0.1735867018158501
 40
0.3129909185536235
 40
0.4814826447735641
 40
0.6689982609031517
 40
0.8389072133939521
 40
1.00705523608201
 40
1.00705523608201
 40
1.00705523608201
 40
1.00705523608201
 10
970.9895699333091
 20
-425.1973863155125
 30
0.0
 10
970.9895699333091
 20
-425.1854536593539
 30
0.0
 10
970.9895699333092
 20
-425.1615883470362
 30
0.0
 10
970.9895699333086
 20
-425.1037261130977
 30
0.0
 10
970.9895699333088
 20
-425.0113284630718
 30
0.0
 10
970.9895699333086
 20
-424.8746995604649
 30
0.0
 10
970.9895699333085
 20
-424.7095623741023
 30
0.0
 10
970.989569933309
 20
-424.534256942489
 30
0.0
 10
970.9895699333089
 20
-424.3590660787194
 30
0.0
 10
970.9895699333091
 20
-424.2463804203265
 30
0.0
 10
970.9895699333091
 20
-424.1903310794305
 30
0.0
 11
970.9895699333091
 21
-425.1973863155125
 31
0.0
 11
970.9895699333089
 21
-425.1615883470359
 31
0.0
 11
970.9895699333091
 21
-425.1257903785596
 31
0.0
 11
970.9895699333089
 21
-425.0237996136958
 31
0.0
 11
970.9895699333091
 21
-424.8843953969578
 31
0.0
 11
970.9895699333091
 21
-424.715903670738
 31
0.0
 11
970.9895699333091
 21
-424.5283880546088
 31
0.0
 11
970.9895699333091
 21
-424.3584791021184
 31
0.0
 11
970.9895699333091
 21
-424.1903310794305
 31
0.0
  0
SPLINE
  5
290
330
1F
100
AcDbEntity
  8
0
  6
Continuous
 62
     7
100
AcDbSpline
210
0.0
220
0.0
230
1.0
 70
     8
 71
     3
 72
    27
 73
    23
 74
    21
 42
0.000000001
 43
0.0000000001
 44
0.00000001
 40
0.0
 40
0.0
 40
0.0
 40
0.0
 40
0.2653234987223012
 40
0.5253763591032878
 40
0.809409526039413
 40
1.080994650512958
 40
1.209215836573003
 40
1.36826591017334
 40
1.448411786942204
 40
1.514181220653226
 40
1.595491840346546
 40
1.661103310733308
 40
1.7439345821533
 40
1.809939427651675
 40
1.870862609249891
 40
1.9229253133576
 40
1.981139963810131
 40
2.035311063258167
 40
2.086779382039039
 40
2.142184863442312
 40
2.19781086307329
 40
2.263816869088147
 40
2.263816869088147
 40
2.263816869088147
 40
2.263816869088147
 10
970.215720335612
 20
-425.1973863155125
 30
0.0
 10
970.1272505968848
 20
-425.1938090172601
 30
0.0
 10
969.9520685668126
 20
-425.1867254790139
 30
0.0
 10
969.6859842832184
 20
-425.1380264837884
 30
0.0
 10
969.4229245274532
 20
-425.0686345607652
 30
0.0
 10
969.2077058422663
 20
-424.9926152369374
 30
0.0
 10
969.0360641131051
 20
-424.920139672269
 30
0.0
 10
968.9256234727263
 20
-424.866999445758
 30
0.0
 10
968.8363589838225
 20
-424.8183153315575
 30
0.0
 10
968.7712316816637
 20
-424.7796195049182
 30
0.0
 10
968.7118732961479
 20
-424.740780799787
 30
0.0
 10
968.6501578519521
 20
-424.6953831530094
 30
0.0
 10
968.5955596656842
 20
-424.6490791868405
 30
0.0
 10
968.5467958529821
 20
-424.5988143215839
 30
0.0
 10
968.5102824609218
 20
-424.5514105333414
 30
0.0
 10
968.4819784110146
 20
-424.5016395365095
 30
0.0
 10
968.4636374529566
 20
-424.4495153310176
 30
0.0
 10
968.4578221475035
 20
-424.3946828449792
 30
0.0
 10
968.4648812648236
 20
-424.3409998970865
 30
0.0
 10
968.4835817257118
 20
-424.2897934022977
 30
0.0
 10
968.5131360599053
 20
-424.2383664156758
 30
0.0
 10
968.5392076568189
 20
-424.20722861735
 30
0.0
 10
968.553355925986
 20
-424.1903310794305
 30
0.0
 11
970.215720335612
 21
-425.1973863155125
 31
0.0
 11
969.9509411976305
 21
-425.180399203196
 31
0.0
 11
969.6946421142201
 21
-425.1363734158564
 31
0.0
 11
969.4200404779847
 21
-425.0637870445579
 31
0.0
 11
969.1639865865901
 21
-424.9732614431324
 31
0.0
 11
969.0459071115814
 21
-424.9232823462504
 31
0.0
 11
968.902739619498
 21
-424.8540003493264
 31
0.0
 11
968.8324188033876
 21
-424.8155511051713
 31
0.0
 11
968.7759077580321
 21
-424.7819041118922
 31
0.0
 11
968.7079629177921
 21
-424.7372396344231
 31
0.0
 11
968.6551898668621
 21
-424.698254122592
 31
0.0
 11
968.5922955520732
 21
-424.644353058816
 31
0.0
 11
968.546592007783
 21
-424.5967313656728
 31
0.0
 11
968.5097452616446
 21
-424.5482138291862
 31
0.0
 11
968.48431777642
 21
-424.5027829129548
 31
0.0
 11
968.4654794130166
 21
-424.4477005964657
 31
0.0
 11
968.4599297272799
 21
-424.3938145221323
 31
0.0
 11
968.4664746126058
 21
-424.3427640341179
 31
0.0
 11
968.4849901087399
 21
-424.2905438865193
 31
0.0
 11
968.5126093121901
 21
-424.2422589863191
 31
0.0
 11
968.553355925986
 21
-424.1903310794305
 31
0.0
  0
SPLINE
  5
291
330
1F
100
AcDbEntity
  8
0
  6
Continuous
 62
     7
100
AcDbSpline
210
0.0
220
0.0
230
1.0
 70
     8
 71
     3
 72
     9
 73
     5
 74
     3
 42
0.000000001
 43
0.0000000001
 44
0.00000001
 40
0.0
 40
0.0
 40
0.0
 40
0.0
 40
1.181403805947222
 40
2.144497250746624
 40
2.144497250746624
 40
2.144497250746624
 40
2.144497250746624
 10
968.553355925986
 20
-424.1903310794305
 30
0.0
 10
968.2713220774807
 20
-424.4823659648795
 30
0.0
 10
967.7593711070218
 20
-425.0124709014748
 30
0.0
 10
967.0383709954672
 20
-425.1400779943969
 30
0.0
 10
966.714569933309
 20
-425.1973863155124
 30
0.0
 11
968.553355925986
 21
-424.1903310794305
 31
0.0
 11
967.6438098514661
 21
-424.9442812740914
 31
0.0
 11
966.714569933309
 21
-425.1973863155124
 31
0.0
  0
ARC
  5
292
102
{ACAD_REACTORS
330
2EA
102
}
330
1F
100
AcDbEntity
  8
1
  6
Continuous
 62
     7
100
AcDbCircle
 10
998.9127919477993
 20
-596.0121321282004
 30
0.0
 40
0.3333333333332575
100
AcDbArc
 50
180.0
 51
299.9816393688506
  0
ARC
  5
293
102
{ACAD_REACTORS
330
2EA
102
}
330
1F
100
AcDbEntity
  8
1
  6
Continuous
 62
     7
100
AcDbCircle
 10
998.9127919477993
 20
-591.1671318078656
 30
0.0
 40
0.3333333333333709
100
AcDbArc
 50
60.01836063114937
 51
180.0
  0
ARC
  5
294
330
1F
100
AcDbEntity
  8
1
  6
Continuous
 62
     7
100
AcDbCircle
 10
1004.579273480693
 20
-593.589631968033
 30
0.0
 40
0.166666666666373
100
AcDbArc
 50
299.9816393686644
 51
60.01836063131604
  0
ARC
  5
295
330
1F
100
AcDbEntity
  8
1
  6
Continuous
 62
     7
100
AcDbCircle
 10
987.9129770815728
 20
-593.589631968033
 30
0.0
 40
0.1666666666666154
100
AcDbArc
 50
119.9816393688871
 51
240.0183606311324
  0
ARC
  5
296
102
{ACAD_REACTORS
330
2EC
102
}
330
1F
100
AcDbEntity
  8
1
  6
Continuous
 62
     7
100
AcDbCircle
 10
993.9127919477993
 20
-595.8196108200003
 30
0.0
 40
0.6666666666666288
100
AcDbArc
 50
180.0000000000097
 51
240.0183606311578
  0
ARC
  5
297
102
{ACAD_REACTORS
330
2ED
102
}
330
1F
100
AcDbEntity
  8
1
  6
Continuous
 62
     7
100
AcDbCircle
 10
996.2461252811327
 20
-593.2562986346998
 30
0.0
 40
0.1666666666667081
100
AcDbArc
 50
209.9999999999617
 51
330.0000000000188
  0
MTEXT
  5
299
330
1F
100
AcDbEntity
  8
1
 62
     7
100
AcDbMText
 10
861.8461252811328
 20
-593.589631968033
 30
0.0
 40
4.5
 41
0.0
 71
     4
 72
     1
  1
CQ 08 V\Pplastic hood top entry PG 21
  7
CONVERTER_11
 73
     1
 44
0.90036014405762
  0
MTEXT
  5
29A
330
1F
100
AcDbEntity
  8
1
 62
     7
100
AcDbMText
 10
974.2461252811327
 20
-596.028992547277
 30
0.0
 40
4.5
 41
0.0
 71
     5
 72
     1
  1
1:1
  7
CONVERTER_11
 73
     1
 44
1.32052821128451
  0
MTEXT
  5
29B
330
1F
100
AcDbEntity
  8
1
 62
     7
100
AcDbMText
 10
974.2461252811327
 20
-589.828992547277
 30
0.0
 40
3.0
 41
0.0
 71
     5
 72
     1
  1
Scale
  7
CONVERTER_11
 73
     1
 44
1.32052821128451
  0
MTEXT
  5
29C
330
1F
100
AcDbEntity
  8
1
 62
     7
100
AcDbMText
 10
838.16982459239
 20
-597.339631968033
 30
0.0
 40
3.0
 41
0.0
 71
     4
 72
     1
  1
N. Visentin
  7
CONVERTER_11
 73
     1
 44
1.32052821128451
  0
MTEXT
  5
29D
330
1F
100
AcDbEntity
  8
1
 62
     7
100
AcDbMText
 10
827.56982459239
 20
-597.339631968033
 30
0.0
 40
3.0
 41
0.0
 71
     4
 72
     1
  1
Sign.
  7
CONVERTER_11
 73
     1
 44
1.32052821128451
  0
MTEXT
  5
29E
330
1F
100
AcDbEntity
  8
1
 62
     7
100
AcDbMText
 10
838.16982459239
 20
-589.828992547277
 30
0.0
 40
3.0
 41
0.0
 71
     4
 72
     1
  1
16/03/09
  7
CONVERTER_11
 73
     1
 44
1.32052821128451
  0
MTEXT
  5
29F
330
1F
100
AcDbEntity
  8
1
 62
     7
100
AcDbMText
 10
827.56982459239
 20
-589.828992547277
 30
0.0
 40
3.0
 41
0.0
 71
     4
 72
     1
  1
Date
  7
CONVERTER_11
 73
     1
 44
1.32052821128451
  0
MTEXT
  5
2A0
330
1F
100
AcDbEntity
  8
1
 62
     7
100
AcDbMText
 10
820.5698245923899
 20
-454.5896319680333
 30
0.0
 40
4.0
 41
0.0
 71
     5
 72
     1
  1
Diritti riservati      All rights reserved
  7
CONVERTER_11
 11
0.0
 21
1.0
 31
0.0
 73
     1
 44
1.32052821128451
  0
DIMENSION
  5
2AC
330
1F
100
AcDbEntity
  8
1
100
AcDbDimension
  2
*D1
 10
995.037591853183
 20
-399.1973863155125
 30
0.0
 11
991.537591853183
 21
-391.6973863155125
 31
0.0
 70
    32
  1
<>
 71
     5
 42
-1.0
 53
90.0
  3
ME10_DIM_10
100
AcDbAlignedDimension
 13
973.8395699333091
 23
-384.1973863155125
 33
0.0
 14
972.8933175807889
 24
-399.1973863155125
 34
0.0
 50
90.0
100
AcDbRotatedDimension
  0
DIMENSION
  5
2B8
330
1F
100
AcDbEntity
  8
1
100
AcDbDimension
  2
*D2
 10
995.037591853183
 20
-399.1973863155126
 30
0.0
 11
991.537591853183
 21
-426.1973863155125
 31
0.0
 70
    32
  1
<>
 71
     5
 42
-1.0
 53
90.0
  3
ME10_DIM_11
100
AcDbAlignedDimension
 13
973.9895699333091
 23
-453.1973863155124
 33
0.0
 14
974.2395699333091
 24
-399.1973863155125
 34
0.0
 50
90.0
100
AcDbRotatedDimension
  0
DIMENSION
  5
2C3
330
1F
100
AcDbEntity
  8
1
100
AcDbDimension
  2
*D3
 10
945.4895699333091
 20
-473.014398834378
 30
0.0
 11
959.7395699333091
 21
-469.364398834378
 31
0.0
 70
    32
  1
<>
 71
     5
 42
-1.0
 53
0.00013888888889
  3
ME10_DIM_12
100
AcDbAlignedDimension
 13
973.9895699333091
 23
-453.1973863155124
 33
0.0
 14
945.4895699333091
 24
-453.1973863155124
 34
0.0
100
AcDbRotatedDimension
  0
DIMENSION
  5
2CE
330
1F
100
AcDbEntity
  8
1
100
AcDbDimension
  2
*D4
 10
942.339569933309
 20
-488.095425634519
 30
0.0
 11
959.739569933309
 21
-484.595425634519
 31
0.0
 70
    32
  1
35
 71
     5
 42
-1.0
 53
0.00013888888889
  3
ME10_DIM_13
100
AcDbAlignedDimension
 13
977.139569933309
 23
-444.6973863155125
 33
0.0
 14
942.339569933309
 24
-444.6973863155125
 34
0.0
100
AcDbRotatedDimension
  0
DIMENSION
  5
2D9
330
1F
100
AcDbEntity
  8
1
100
AcDbDimension
  2
*D5
 10
853.839569933309
 20
-472.864398834378
 30
0.0
 11
877.839569933309
 21
-469.364398834378
 31
0.0
 70
    32
  1
<>
 71
     5
 42
-1.0
 53
0.00013888888889
  3
ME10_DIM_14
100
AcDbAlignedDimension
 13
901.839569933309
 23
-453.1973863155124
 33
0.0
 14
853.839569933309
 24
-453.1973863155124
 34
0.0
100
AcDbRotatedDimension
  0
DIMENSION
  5
2E4
330
1F
100
AcDbEntity
  8
1
100
AcDbDimension
  2
*D6
 10
945.6395699333088
 20
-364.280054485191
 30
0.0
 11
959.739569933309
 21
-360.330054485191
 31
0.0
 70
    32
  1
Pg 21
 71
     5
 42
-1.0
 53
0.00013888888889
  3
ME10_DIM_15
100
AcDbAlignedDimension
 13
973.8395699333091
 23
-384.1973863155125
 33
0.0
 14
945.6395699333088
 24
-384.1973863155125
 34
0.0
100
AcDbRotatedDimension
  0
HATCH
  5
2E5
330
1F
100
AcDbEntity
  8
1
  6
Continuous
 62
     2
100
AcDbHatch
 10
0.0
 20
0.0
 30
0.0
210
0.0
220
0.0
230
1.0
  2
SOLID
 70
     1
 71
     1
 91
        1
 92
        1
 93
        4
 72
     2
 10
875.43956993331
 20
-411.2065936809505
 40
0.199999999999136
 50
0.0
 51
180.0
 73
     1
 72
     1
 10
875.2395699333091
 20
-411.2065936809505
 11
875.2395699333091
 21
-413.1905169500745
 72
     2
 10
875.43956993331
 20
-413.1905169500745
 40
0.200000000000955
 50
180.0
 51
360.0
 73
     1
 72
     1
 10
875.6395699333092
 20
-413.1905169500745
 11
875.6395699333092
 21
-411.2065936809505
 97
        4
330
22D
330
CA
330
220
330
CB
 75
     0
 76
     1
 98
        1
 10
0.0
 20
0.0
  0
HATCH
  5
2E6
330
1F
100
AcDbEntity
  8
1
  6
Continuous
 62
     2
100
AcDbHatch
 10
0.0
 20
0.0
 30
0.0
210
0.0
220
0.0
230
1.0
  2
SOLID
 70
     1
 71
     1
 91
        2
 92
        1
 93
        7
 72
     1
 10
882.989375589092
 20
-411.938699639698
 11
877.839569933309
 21
-408.9676579152078
 72
     1
 10
877.839569933309
 20
-408.9676579152078
 11
872.6897642775272
 21
-411.938699639698
 72
     2
 10
872.8396810135731
 20
-412.1985553155125
 40
0.299999999999513
 50
119.9816393687
 51
180.0
 73
     1
 72
     2
 10
872.8396810135731
 20
-412.1985553155125
 40
0.299999999999045
 50
180.0
 51
240.0183606313055
 73
     1
 72
     1
 10
872.6897642775272
 20
-412.4584109913271
 11
877.839569933309
 21
-415.4294527158172
 72
     1
 10
877.839569933309
 20
-415.4294527158172
 11
882.989375589092
 21
-412.458410991327
 72
     2
 10
882.839458853046
 20
-412.1985553155125
 40
0.2999999999994638
 50
299.9816393687054
 51
420.0183606313
 73
     1
 97
        7
330
B7
330
C1
330
213
330
225
330
98
330
94
330
227
 92
       16
 93
        6
 72
     2
 10
882.839458853046
 20
-412.1985553155125
 40
0.0999999999994526
 50
299.9816393684262
 51
420.0183606316552
 73
     1
 72
     1
 10
882.8894310983941
 20
-412.1119367569075
 11
877.839569933309
 21
-409.1985553155125
 72
     1
 10
877.839569933309
 20
-409.1985553155125
 11
872.7897087682251
 21
-412.1119367569075
 72
     2
 10
872.8396810135731
 20
-412.1985553155125
 40
0.0999999999996988
 50
119.9816393683448
 51
240.0183606315738
 73
     1
 72
     1
 10
872.7897087682251
 20
-412.2851738741173
 11
877.839569933309
 21
-415.1985553155125
 72
     1
 10
877.839569933309
 20
-415.1985553155125
 11
882.8894310983941
 21
-412.2851738741173
 97
        6
330
226
330
C4
330
B6
330
224
330
92
330
93
 75
     0
 76
     1
 98
        1
 10
0.0
 20
0.0
  0
HATCH
  5
2E7
330
1F
100
AcDbEntity
  8
1
  6
Continuous
 62
     2
100
AcDbHatch
 10
0.0
 20
0.0
 30
0.0
210
0.0
220
0.0
230
1.0
  2
SOLID
 70
     1
 71
     1
 91
        1
 92
        1
 93
        7
 72
     2
 10
876.2395699333091
 20
-410.7450552194119
 40
0.200000000000955
 50
0.0
 51
180.0
 73
     1
 72
     1
 10
876.039569933309
 20
-410.7450552194119
 11
876.039569933309
 21
-413.5365426266928
 72
     2
 10
876.43956993331
 20
-413.5365426266928
 40
0.4000000000010004
 50
180.0
 51
240.018360631139
 73
     1
 72
     1
 10
876.239680951914
 20
-413.8830168611124
 11
877.539625442611
 21
-414.6329848365149
 72
     2
 10
877.6395699333092
 20
-414.4597477193053
 40
0.1999999999999771
 50
240.0183606310742
 51
420.018360631155
 73
     1
 72
     1
 10
877.7395144240071
 20
-414.2865106020956
 11
876.43956993331
 21
-413.5365426266928
 72
     1
 10
876.43956993331
 20
-413.5365426266928
 11
876.43956993331
 21
-410.7450552194119
 97
        7
330
22B
330
CC
330
21D
330
9A
330
21E
330
99
330
C7
 75
     0
 76
     1
 98
        1
 10
0.0
 20
0.0
  0
HATCH
  5
2E8
330
1F
100
AcDbEntity
  8
1
  6
Continuous
 62
     2
100
AcDbHatch
 10
0.0
 20
0.0
 30
0.0
210
0.0
220
0.0
230
1.0
  2
SOLID
 70
     1
 71
     1
 91
        1
 92
        1
 93
       14
 72
     2
 10
879.43956993331
 20
-410.7450552194119
 40
0.199999999999409
 50
60.01836063135628
 51
180.0
 73
     1
 72
     1
 10
879.2395699333091
 20
-410.7450552194119
 11
879.2395699333091
 21
-413.6520554116129
 72
     2
 10
879.43956993331
 20
-413.6520554116129
 40
0.200000000000955
 50
180.0
 51
299.9816393686112
 73
     1
 72
     1
 10
879.539514424007
 20
-413.8252925288227
 11
880.339514424007
 21
-413.3637540672842
 72
     2
 10
880.2395699333091
 20
-413.1905169500745
 40
0.2000000000000112
 50
299.981639368845
 51
479.9816393688531
 73
     1
 72
     1
 10
880.1396254426112
 20
-413.0172798328648
 11
879.6395699333092
 21
-413.3057733959237
 72
     1
 10
879.6395699333092
 20
-413.3057733959237
 11
879.6395699333092
 21
-412.3985553155125
 72
     1
 10
879.6395699333092
 20
-412.3985553155125
 11
880.2395699333091
 21
-412.3985553155125
 72
     2
 10
880.2395699333091
 20
-412.1985553155125
 40
0.1999999999999886
 50
270.0
 51
450.0
 73
     1
 72
     1
 10
880.2395699333091
 20
-411.9985553155125
 11
879.6395699333092
 21
-411.9985553155125
 72
     1
 10
879.6395699333092
 20
-411.9985553155125
 11
879.6395699333092
 21
-411.0913372351013
 72
     1
 10
879.6395699333092
 20
-411.0913372351013
 11
880.1396254426112
 21
-411.3798307981602
 72
     2
 10
880.2395699333091
 20
-411.2065936809505
 40
0.1999999999999619
 50
240.0183606311469
 51
420.0183606311469
 73
     1
 72
     1
 10
880.339514424007
 20
-411.0333565637408
 11
879.539514424007
 21
-410.5718181022023
 97
       14
330
22F
330
CD
330
221
330
9B
330
222
330
9C
330
9D
330
9E
330
232
330
C5
330
C6
330
C2
330
22E
330
C3
 75
     0
 76
     1
 98
        1
 10
0.0
 20
0.0
  0
HATCH
  5
2E9
330
1F
100
AcDbEntity
  8
1
  6
Continuous
 62
     2
100
AcDbHatch
 10
0.0
 20
0.0
 30
0.0
210
0.0
220
0.0
230
1.0
  2
SOLID
 70
     1
 71
     1
 91
        1
 92
        1
 93
       13
 72
     2
 10
878.6805902058242
 20
-410.2598249282918
 40
0.1589797274848479
 50
0.0
 51
150.0000000000218
 73
     1
 72
     1
 10
878.542909723135
 20
-410.1803350645491
 11
877.839569933309
 21
-411.3985553155125
 72
     1
 10
877.839569933309
 20
-411.3985553155125
 11
877.136230143483
 21
-410.1803350645491
 72
     2
 10
876.998549660795
 20
-410.2598249282918
 40
0.1589797274844229
 50
30.00000000018306
 51
180.0
 73
     1
 72
     1
 10
876.839569933309
 20
-410.2598249282918
 11
876.839569933309
 21
-413.1900042719328
 72
     2
 10
877.039569933309
 20
-413.1900042719328
 40
0.2000000000000455
 50
180.0
 51
360.0
 73
     1
 72
     1
 10
877.2395699333091
 20
-413.1900042719328
 11
877.2395699333091
 21
-411.1593248309712
 72
     1
 10
877.2395699333091
 20
-411.1593248309712
 11
877.752967392931
 21
-412.0485553155125
 72
     2
 10
877.839569933309
 20
-411.9985553155125
 40
0.0999999999995807
 50
210.0000000001462
 51
330.0000000001795
 73
     1
 72
     1
 10
877.9261724736881
 20
-412.0485553155125
 11
878.43956993331
 21
-411.1593248309712
 72
     1
 10
878.43956993331
 20
-411.1593248309712
 11
878.43956993331
 21
-414.1135938731514
 72
     2
 10
878.6395699333092
 20
-414.1135938731514
 40
0.199999999999136
 50
180.0
 51
360.0
 73
     1
 72
     1
 10
878.839569933309
 20
-414.1135938731514
 11
878.839569933309
 21
-410.2598249282918
 97
       13
330
230
330
B2
330
B3
330
22C
330
C9
330
21F
330
C8
330
B5
330
231
330
B4
330
CE
330
223
330
CF
 75
     0
 76
     1
 98
        1
 10
0.0
 20
0.0
  0
HATCH
  5
2EA
330
1F
100
AcDbEntity
  8
1
  6
Continuous
 62
     7
100
AcDbHatch
 10
0.0
 20
0.0
 30
0.0
210
0.0
220
0.0
230
1.0
  2
SOLID
 70
     1
 71
     1
 91
        1
 92
        1
 93
       14
 72
     1
 10
1000.079551129969
 20
-592.2250911057793
 11
999.2461252811327
 21
-591.7442685006811
 72
     1
 10
999.2461252811327
 20
-591.7442685006811
 11
999.2461252811327
 21
-593.2562986346998
 72
     1
 10
999.2461252811327
 20
-593.2562986346998
 11
1000.246125281133
 21
-593.2562986346998
 72
     2
 10
1000.246125281133
 20
-593.589631968033
 40
0.3333333333333712
 50
270.0
 51
450.0
 73
     0
 72
     1
 10
1000.246125281133
 20
-593.9229653013664
 11
999.2461252811327
 21
-593.9229653013664
 72
     1
 10
999.2461252811327
 20
-593.9229653013664
 11
999.2461252811327
 21
-595.4349954353851
 72
     1
 10
999.2461252811327
 20
-595.4349954353851
 11
1000.079551129969
 21
-594.9541728302868
 72
     2
 10
1000.246125281133
 20
-595.2429013589698
 40
0.3333333333332573
 50
240.0183606310406
 51
420.0183606311832
 73
     0
 72
     1
 10
1000.412699432296
 20
-595.5316298876527
 11
999.0793660989625
 21
-596.3008606568833
 72
     2
 10
998.9127919477993
 20
-596.0121321282004
 40
0.3333333333332575
 50
60.01836063114938
 51
180.0
 73
     0
 72
     1
 10
998.579458614466
 20
-596.0121321282004
 11
998.579458614466
 21
-591.1671318078656
 72
     2
 10
998.9127919477993
 20
-591.1671318078656
 40
0.3333333333333709
 50
180.0
 51
299.9816393688506
 73
     0
 72
     1
 10
999.0793660989625
 20
-590.8784032791827
 11
1000.412699432296
 21
-591.6476340484136
 72
     2
 10
1000.246125281133
 20
-591.9363625770964
 40
0.3333333333337686
 50
299.9816393688265
 51
479.9816393689691
 73
     0
 97
       14
330
1EE
330
293
330
205
330
292
330
1E7
330
260
330
1E8
330
1E9
330
1EA
330
261
330
1EB
330
1EC
330
1ED
330
262
 75
     0
 76
     1
 98
        1
 10
0.0
 20
0.0
  0
HATCH
  5
2EB
330
1F
100
AcDbEntity
  8
1
  6
Continuous
 62
     7
100
AcDbHatch
 10
0.0
 20
0.0
 30
0.0
210
0.0
220
0.0
230
1.0
  2
SOLID
 70
     1
 71
     1
 91
        1
 92
        1
 93
        5
 72
     1
 10
992.5794586144659
 20
-591.9363625770964
 11
992.5794586144659
 21
-595.0503800507697
 72
     1
 10
992.5794586144659
 20
-595.0503800507697
 11
992.5794586144659
 21
-595.2429013589698
 72
     2
 10
992.2461252811327
 20
-595.2429013589698
 40
0.3333333333333712
 50
0.0
 51
180.0
 73
     0
 72
     1
 10
991.9127919477993
 20
-595.2429013589698
 11
991.9127919477993
 21
-591.9363625770964
 72
     2
 10
992.2461252811327
 20
-591.9363625770964
 40
0.3333333333332575
 50
180.0
 51
360.0
 73
     0
 97
        5
330
1F1
330
1F0
330
263
330
1EF
330
264
 75
     0
 76
     1
 98
        1
 10
0.0
 20
0.0
  0
HATCH
  5
2EC
330
1F
100
AcDbEntity
  8
1
  6
Continuous
 62
     7
100
AcDbHatch
 10
0.0
 20
0.0
 30
0.0
210
0.0
220
0.0
230
1.0
  2
SOLID
 70
     1
 71
     1
 91
        1
 92
        1
 93
        7
 72
     1
 10
993.9127919477993
 20
-591.1671318078656
 11
993.9127919477993
 21
-595.8196108200003
 72
     1
 10
993.9127919477993
 20
-595.8196108200003
 11
996.0793660989625
 21
-597.0695574456714
 72
     2
 10
995.9127919477993
 20
-597.3582859743543
 40
0.3333333333333709
 50
299.9816393688506
 51
479.9816393688507
 73
     0
 72
     1
 10
995.7462177966361
 20
-597.6470145030372
 11
993.579643645473
 21
-596.3970678773661
 72
     2
 10
993.9127919477993
 20
-595.8196108200003
 40
0.6666666666666288
 50
119.9816393688422
 51
179.9999999999902
 73
     0
 72
     1
 10
993.2461252811327
 20
-595.8196108200004
 11
993.2461252811327
 21
-591.1671318078656
 72
     2
 10
993.5794586144659
 20
-591.1671318078656
 40
0.3333333333333712
 50
180.0
 51
360.0
 73
     0
 97
        7
330
1F4
330
1F3
330
265
330
1F2
330
296
330
1F5
330
266
 75
     0
 76
     1
 98
        1
 10
0.0
 20
0.0
  0
HATCH
  5
2ED
330
1F
100
AcDbEntity
  8
1
  6
Continuous
 62
     7
100
AcDbHatch
 10
0.0
 20
0.0
 30
0.0
210
0.0
220
0.0
230
1.0
  2
SOLID
 70
     1
 71
     1
 91
        1
 92
        1
 93
       16
 72
     2
 10
994.8444248269412
 20
-590.3584146559984
 40
0.2649662124753319
 50
30.00000000001207
 51
180.0
 73
     1
 72
     1
 10
994.5794586144659
 20
-590.3584146559984
 11
994.5794586144659
 21
-593.589631968033
 72
     1
 10
994.5794586144659
 20
-593.589631968033
 11
994.5794586144659
 21
-595.2420468954001
 72
     2
 10
994.9127919477993
 20
-595.2420468954001
 40
0.3333333333333712
 50
180.0
 51
360.0
 73
     1
 72
     1
 10
995.2461252811327
 20
-595.2420468954001
 11
995.2461252811327
 21
-593.589631968033
 72
     1
 10
995.2461252811327
 20
-593.589631968033
 11
995.2461252811327
 21
-591.8575811604642
 72
     1
 10
995.2461252811327
 20
-591.8575811604642
 11
996.1017877138352
 21
-593.339631968033
 72
     2
 10
996.2461252811327
 20
-593.2562986346998
 40
0.1666666666667081
 50
209.9999999999617
 51
330.0000000000188
 73
     1
 72
     1
 10
996.39046284843
 20
-593.339631968033
 11
997.2461252811327
 21
-591.8575811604642
 72
     1
 10
997.2461252811327
 20
-591.8575811604642
 11
997.2461252811327
 21
-593.589631968033
 72
     1
 10
997.2461252811327
 20
-593.589631968033
 11
997.2461252811327
 21
-596.7813628974312
 72
     2
 10
997.579458614466
 20
-596.7813628974312
 40
0.3333333333333712
 50
180.0
 51
360.0
 73
     1
 72
     1
 10
997.9127919477993
 20
-596.7813628974312
 11
997.9127919477993
 21
-590.3584146559984
 72
     2
 10
997.647825735324
 20
-590.3584146559984
 40
0.2649662124753149
 50
0.0
 51
149.9999999999756
 73
     1
 72
     1
 10
997.4183582641759
 20
-590.2259315497607
 11
996.2461252811327
 21
-592.2562986346998
 72
     1
 10
996.2461252811327
 20
-592.2562986346998
 11
995.0738922980894
 21
-590.2259315497607
 97
       16
330
1F6
330
267
330
1F7
330
268
330
1F8
330
204
330
203
330
297
330
202
330
201
330
1F9
330
269
330
1FA
330
1FC
330
26A
330
1FB
 75
     0
 76
     1
 98
        1
 10
0.0
 20
0.0
  0
ENDSEC
  0
SECTION
  2
OBJECTS
  0
DICTIONARY
  5
C
330
0
100
AcDbDictionary
281
     1
  3
ACAD_GROUP
350
D
  3
ACAD_LAYOUT
350
1A
  3
ACAD_MATERIAL
350
3B
  3
ACAD_MLEADERSTYLE
350
2F0
  3
ACAD_MLINESTYLE
350
17
  3
ACAD_PLOTSETTINGS
350
19
  3
ACAD_PLOTSTYLENAME
350
E
  3
ACAD_VISUALSTYLE
350
2A
  3
AcDbVariableDictionary
350
2EE
  0
DICTIONARY
  5
D
102
{ACAD_REACTORS
330
C
102
}
330
C
100
AcDbDictionary
281
     1
  0
DICTIONARY
  5
1A
102
{ACAD_REACTORS
330
C
102
}
330
C
100
AcDbDictionary
281
     1
  3
Layout1
350
1E
  3
Layout2
350
26
  3
Model
350
22
  0
DICTIONARY
  5
3B
102
{ACAD_REACTORS
330
C
102
}
330
C
100
AcDbDictionary
281
     1
  3
ByBlock
350
3D
  3
ByLayer
350
3C
  3
Global
350
3E
  0
DICTIONARY
  5
2F0
102
{ACAD_REACTORS
330
C
102
}
330
C
100
AcDbDictionary
281
     1
  0
DICTIONARY
  5
17
102
{ACAD_REACTORS
330
C
102
}
330
C
100
AcDbDictionary
281
     1
  3
Standard
350
18
  0
DICTIONARY
  5
19
102
{ACAD_REACTORS
330
C
102
}
330
C
100
AcDbDictionary
281
     1
  0
ACDBDICTIONARYWDFLT
  5
E
102
{ACAD_REACTORS
330
C
102
}
330
C
100
AcDbDictionary
281
     1
  3
Normal
350
F
100
AcDbDictionaryWithDefault
340
F
  0
DICTIONARY
  5
2A
102
{ACAD_REACTORS
330
C
102
}
330
C
100
AcDbDictionary
281
     1
  3
2dWireframe
350
2F
  3
3D Hidden
350
31
  3
3dWireframe
350
30
  3
Basic
350
32
  3
Brighten
350
36
  3
ColorChange
350
3A
  3
Conceptual
350
34
  3
Dim
350
35
  3
Facepattern
350
39
  3
Flat
350
2B
  3
FlatWithEdges
350
2C
  3
Gouraud
350
2D
  3
GouraudWithEdges
350
2E
  3
Linepattern
350
38
  3
Realistic
350
33
  3
Thicken
350
37
  0
DICTIONARY
  5
2EE
102
{ACAD_REACTORS
330
C
102
}
330
C
100
AcDbDictionary
281
     1
  3
DIMASSOC
350
2F1
  3
HIDETEXT
350
2F2
  0
LAYOUT
  5
1E
102
{ACAD_REACTORS
330
1A
102
}
330
1A
100
AcDbPlotSettings
  1

  2
none_device
  4

  6

 40
0.0
 41
0.0
 42
0.0
 43
0.0
 44
0.0
 45
0.0
 46
0.0
 47
0.0
 48
0.0
 49
0.0
140
0.0
141
0.0
142
1.0
143
1.0
 70
   688
 72
     0
 73
     0
 74
     5
  7

 75
    16
147
1.0
148
0.0
149
0.0
100
AcDbLayout
  1
Layout1
 70
     1
 71
     1
 10
0.0
 20
0.0
 11
12.0
 21
9.0
 12
0.0
 22
0.0
 32
0.0
 14
1.00000000000000E+20
 24
1.00000000000000E+20
 34
1.00000000000000E+20
 15
-1.00000000000000E+20
 25
-1.00000000000000E+20
 35
-1.00000000000000E+20
146
0.0
 13
0.0
 23
0.0
 33
0.0
 16
1.0
 26
0.0
 36
0.0
 17
0.0
 27
1.0
 37
0.0
 76
     0
330
1B
  0
LAYOUT
  5
26
102
{ACAD_REACTORS
330
1A
102
}
330
1A
100
AcDbPlotSettings
  1

  2
none_device
  4

  6

 40
0.0
 41
0.0
 42
0.0
 43
0.0
 44
0.0
 45
0.0
 46
0.0
 47
0.0
 48
0.0
 49
0.0
140
0.0
141
0.0
142
1.0
143
1.0
 70
   688
 72
     0
 73
     0
 74
     5
  7

 75
    16
147
1.0
148
0.0
149
0.0
100
AcDbLayout
  1
Layout2
 70
     1
 71
     2
 10
0.0
 20
0.0
 11
0.0
 21
0.0
 12
0.0
 22
0.0
 32
0.0
 14
0.0
 24
0.0
 34
0.0
 15
0.0
 25
0.0
 35
0.0
146
0.0
 13
0.0
 23
0.0
 33
0.0
 16
1.0
 26
0.0
 36
0.0
 17
0.0
 27
1.0
 37
0.0
 76
     0
330
23
  0
LAYOUT
  5
22
102
{ACAD_REACTORS
330
1A
102
}
330
1A
100
AcDbPlotSettings
  1

  2
none_device
  4

  6

 40
0.0
 41
0.0
 42
0.0
 43
0.0
 44
0.0
 45
0.0
 46
0.0
 47
0.0
 48
0.0
 49
0.0
140
0.0
141
0.0
142
1.0
143
1.0
 70
  1712
 72
     0
 73
     0
 74
     0
  7

 75
     0
147
1.0
148
0.0
149
0.0
100
AcDbLayout
  1
Model
 70
     1
 71
     0
 10
0.0
 20
0.0
 11
12.0
 21
9.0
 12
0.0
 22
0.0
 32
0.0
 14
804.5698245923899
 24
-606.089631968033
 34
0.0
 15
1014.56982459239
 25
-309.0896319680329
 35
0.0
146
0.0
 13
0.0
 23
0.0
 33
0.0
 16
1.0
 26
0.0
 36
0.0
 17
0.0
 27
1.0
 37
0.0
 76
     0
330
1F
331
29
  0
MATERIAL
  5
3D
102
{ACAD_REACTORS
330
3B
102
}
102
{ACAD_XDICTIONARY
360
315
102
}
330
3B
100
AcDbMaterial
  1
ByBlock
  0
MATERIAL
  5
3C
102
{ACAD_REACTORS
330
3B
102
}
102
{ACAD_XDICTIONARY
360
313
102
}
330
3B
100
AcDbMaterial
  1
ByLayer
  0
MATERIAL
  5
3E
102
{ACAD_REACTORS
330
3B
102
}
102
{ACAD_XDICTIONARY
360
317
102
}
330
3B
100
AcDbMaterial
  1
Global
  0
MLINESTYLE
  5
18
102
{ACAD_REACTORS
330
17
102
}
330
17
100
AcDbMlineStyle
  2
Standard
 70
     0
  3

 62
   256
 51
90.0
 52
90.0
 71
     2
 49
0.5
 62
   256
  6
BYLAYER
 49
-0.5
 62
   256
  6
BYLAYER
  0
ACDBPLACEHOLDER
  5
F
102
{ACAD_REACTORS
330
E
102
}
330
E
  0
VISUALSTYLE
  5
2F
102
{ACAD_REACTORS
330
2A
102
}
102
{ACAD_XDICTIONARY
360
2FB
102
}
330
2A
100
AcDbVisualStyle
  2
2dWireframe
 70
     4
 71
     0
 72
     2
 73
     0
 90
        0
 40
-0.6
 41
-30.0
 62
     5
 63
     7
 74
     1
 91
        4
 64
     7
 65
   257
 75
     1
175
     1
 42
1.0
 92
        0
 66
   257
 43
1.0
 76
     1
 77
     6
 78
     2
 67
     7
 79
     5
170
     0
171
     0
290
     0
174
     0
 93
        1
 44
0.0
173
     0
291
     0
 45
0.0
1001
ACAD
1000
AcDbSavedByObjectVersion
1070
     0
  0
VISUALSTYLE
  5
31
102
{ACAD_REACTORS
330
2A
102
}
102
{ACAD_XDICTIONARY
360
2FF
102
}
330
2A
100
AcDbVisualStyle
  2
3D Hidden
 70
     6
 71
     1
 72
     2
 73
     2
 90
        0
 40
-0.6
 41
-30.0
 62
     5
 63
     7
 74
     2
 91
        2
 64
     7
 65
   257
 75
     2
175
     1
 42
40.0
 92
        0
 66
   257
 43
1.0
 76
     1
 77
     6
 78
     2
 67
     7
 79
     3
170
     0
171
     0
290
     0
174
     0
 93
        1
 44
0.0
173
     0
291
     0
 45
0.0
1001
ACAD
1000
AcDbSavedByObjectVersion
1070
     0
  0
VISUALSTYLE
  5
30
102
{ACAD_REACTORS
330
2A
102
}
102
{ACAD_XDICTIONARY
360
2FD
102
}
330
2A
100
AcDbVisualStyle
  2
3dWireframe
 70
     5
 71
     0
 72
     2
 73
     0
 90
        0
 40
-0.6
 41
-30.0
 62
     5
 63
     7
 74
     1
 91
        4
 64
     7
 65
   257
 75
     1
175
     1
 42
1.0
 92
        0
 66
   257
 43
1.0
 76
     1
 77
     6
 78
     2
 67
     7
 79
     5
170
     0
171
     0
290
     0
174
     0
 93
        1
 44
0.0
173
     0
291
     0
 45
0.0
1001
ACAD
1000
AcDbSavedByObjectVersion
1070
     0
  0
VISUALSTYLE
  5
32
102
{ACAD_REACTORS
330
2A
102
}
102
{ACAD_XDICTIONARY
360
301
102
}
330
2A
100
AcDbVisualStyle
  2
Basic
 70
     7
 71
     1
 72
     0
 73
     1
 90
        0
 40
-0.6
 41
-30.0
 62
     5
 63
     7
 74
     0
 91
        4
 64
     7
 65
   257
 75
     1
175
     1
 42
1.0
 92
        8
 66
     7
 43
1.0
 76
     1
 77
     6
 78
     2
 67
     7
 79
     5
170
     0
171
     0
290
     0
174
     0
 93
        1
 44
0.0
173
     0
291
     1
 45
0.0
1001
ACAD
1000
AcDbSavedByObjectVersion
1070
     0
  0
VISUALSTYLE
  5
36
102
{ACAD_REACTORS
330
2A
102
}
102
{ACAD_XDICTIONARY
360
309
102
}
330
2A
100
AcDbVisualStyle
  2
Brighten
 70
    12
 71
     2
 72
     2
 73
     0
 90
        0
 40
-0.6
 41
-30.0
 62
     5
 63
     7
 74
     1
 91
        4
 64
     7
 65
   257
 75
     1
175
     1
 42
1.0
 92
        8
 66
     7
 43
1.0
 76
     1
 77
     6
 78
     2
 67
     7
 79
     5
170
     0
171
     0
290
     0
174
     0
 93
        1
 44
50.0
173
     0
291
     1
 45
0.0
1001
ACAD
1000
AcDbSavedByObjectVersion
1070
     0
  0
VISUALSTYLE
  5
3A
102
{ACAD_REACTORS
330
2A
102
}
102
{ACAD_XDICTIONARY
360
311
102
}
330
2A
100
AcDbVisualStyle
  2
ColorChange
 70
    16
 71
     2
 72
     2
 73
     3
 90
        0
 40
-0.6
 41
-30.0
 62
     5
 63
     8
 74
     1
 91
        4
 64
     7
 65
   257
 75
     1
175
     1
 42
1.0
 92
        8
 66
     8
 43
1.0
 76
     1
 77
     6
 78
     2
 67
     7
 79
     5
170
     0
171
     0
290
     0
174
     0
 93
        1
 44
0.0
173
     0
291
     1
 45
0.0
1001
ACAD
1000
AcDbSavedByObjectVersion
1070
     0
  0
VISUALSTYLE
  5
34
102
{ACAD_REACTORS
330
2A
102
}
102
{ACAD_XDICTIONARY
360
305
102
}
330
2A
100
AcDbVisualStyle
  2
Conceptual
 70
     9
 71
     3
 72
     2
 73
     0
 90
        0
 40
-0.6
 41
-30.0
 62
     5
 63
     7
 74
     2
 91
        2
 64
     7
 65
   257
 75
     1
175
     1
 42
40.0
 92
        8
 66
     7
 43
1.0
 76
     1
 77
     6
 78
     2
 67
     7
 79
     3
170
     0
171
     0
290
     0
174
     0
 93
        1
 44
0.0
173
     0
291
     0
 45
0.0
1001
ACAD
1000
AcDbSavedByObjectVersion
1070
     0
  0
VISUALSTYLE
  5
35
102
{ACAD_REACTORS
330
2A
102
}
102
{ACAD_XDICTIONARY
360
307
102
}
330
2A
100
AcDbVisualStyle
  2
Dim
 70
    11
 71
     2
 72
     2
 73
     0
 90
        0
 40
-0.6
 41
-30.0
 62
     5
 63
     7
 74
     1
 91
        4
 64
     7
 65
   257
 75
     1
175
     1
 42
1.0
 92
        8
 66
     7
 43
1.0
 76
     1
 77
     6
 78
     2
 67
     7
 79
     5
170
     0
171
     0
290
     0
174
     0
 93
        1
 44
-50.0
173
     0
291
     1
 45
0.0
1001
ACAD
1000
AcDbSavedByObjectVersion
1070
     0
  0
VISUALSTYLE
  5
39
102
{ACAD_REACTORS
330
2A
102
}
102
{ACAD_XDICTIONARY
360
30F
102
}
330
2A
100
AcDbVisualStyle
  2
Facepattern
 70
    15
 71
     2
 72
     2
 73
     0
 90
        0
 40
-0.6
 41
-30.0
 62
     5
 63
     7
 74
     1
 91
        4
 64
     7
 65
   257
 75
     1
175
     1
 42
1.0
 92
        8
 66
     7
 43
1.0
 76
     1
 77
     6
 78
     2
 67
     7
 79
     5
170
     0
171
     0
290
     0
174
     0
 93
        1
 44
0.0
173
     0
291
     1
 45
0.0
1001
ACAD
1000
AcDbSavedByObjectVersion
1070
     0
  0
VISUALSTYLE
  5
2B
102
{ACAD_REACTORS
330
2A
102
}
102
{ACAD_XDICTIONARY
360
2F3
102
}
330
2A
100
AcDbVisualStyle
  2
Flat
 70
     0
 71
     2
 72
     1
 73
     1
 90
        2
 40
-0.6
 41
30.0
 62
     5
 63
     7
 74
     0
 91
        4
 64
     7
 65
   257
 75
     1
175
     1
 42
1.0
 92
        8
 66
     7
 43
1.0
 76
     1
 77
     6
 78
     2
 67
     7
 79
     5
170
     0
171
     0
290
     0
174
     0
 93
       13
 44
0.0
173
     0
291
     1
 45
0.0
1001
ACAD
1000
AcDbSavedByObjectVersion
1070
     0
  0
VISUALSTYLE
  5
2C
102
{ACAD_REACTORS
330
2A
102
}
102
{ACAD_XDICTIONARY
360
2F5
102
}
330
2A
100
AcDbVisualStyle
  2
FlatWithEdges
 70
     1
 71
     2
 72
     1
 73
     1
 90
        2
 40
-0.6
 41
30.0
 62
     5
 63
     7
 74
     1
 91
        4
 64
     7
 65
   257
 75
     1
175
     1
 42
1.0
 92
        0
 66
   257
 43
1.0
 76
     1
 77
     6
 78
     2
 67
     7
 79
     5
170
     0
171
     0
290
     0
174
     0
 93
       13
 44
0.0
173
     0
291
     1
 45
0.0
1001
ACAD
1000
AcDbSavedByObjectVersion
1070
     0
  0
VISUALSTYLE
  5
2D
102
{ACAD_REACTORS
330
2A
102
}
102
{ACAD_XDICTIONARY
360
2F7
102
}
330
2A
100
AcDbVisualStyle
  2
Gouraud
 70
     2
 71
     2
 72
     2
 73
     1
 90
        2
 40
-0.6
 41
30.0
 62
     5
 63
     7
 74
     0
 91
        4
 64
     7
 65
   257
 75
     1
175
     1
 42
1.0
 92
        0
 66
     7
 43
1.0
 76
     1
 77
     6
 78
     2
 67
     7
 79
     5
170
     0
171
     0
290
     0
174
     0
 93
       13
 44
0.0
173
     0
291
     1
 45
0.0
1001
ACAD
1000
AcDbSavedByObjectVersion
1070
     0
  0
VISUALSTYLE
  5
2E
102
{ACAD_REACTORS
330
2A
102
}
102
{ACAD_XDICTIONARY
360
2F9
102
}
330
2A
100
AcDbVisualStyle
  2
GouraudWithEdges
 70
     3
 71
     2
 72
     2
 73
     1
 90
        2
 40
-0.6
 41
30.0
 62
     5
 63
     7
 74
     1
 91
        4
 64
     7
 65
   257
 75
     1
175
     1
 42
1.0
 92
        0
 66
   257
 43
1.0
 76
     1
 77
     6
 78
     2
 67
     7
 79
     5
170
     0
171
     0
290
     0
174
     0
 93
       13
 44
0.0
173
     0
291
     1
 45
0.0
1001
ACAD
1000
AcDbSavedByObjectVersion
1070
     0
  0
VISUALSTYLE
  5
38
102
{ACAD_REACTORS
330
2A
102
}
102
{ACAD_XDICTIONARY
360
30D
102
}
330
2A
100
AcDbVisualStyle
  2
Linepattern
 70
    14
 71
     2
 72
     2
 73
     0
 90
        0
 40
-0.6
 41
-30.0
 62
     5
 63
     7
 74
     1
 91
        4
 64
     7
 65
   257
 75
     7
175
     7
 42
1.0
 92
        8
 66
     7
 43
1.0
 76
     1
 77
     6
 78
     2
 67
     7
 79
     5
170
     0
171
     0
290
     0
174
     0
 93
        1
 44
0.0
173
     0
291
     1
 45
0.0
1001
ACAD
1000
AcDbSavedByObjectVersion
1070
     0
  0
VISUALSTYLE
  5
33
102
{ACAD_REACTORS
330
2A
102
}
102
{ACAD_XDICTIONARY
360
303
102
}
330
2A
100
AcDbVisualStyle
  2
Realistic
 70
     8
 71
     2
 72
     2
 73
     0
 90
        0
 40
-0.6
 41
-30.0
 62
     5
 63
     7
 74
     1
 91
        0
 64
     7
 65
   257
 75
     1
175
     1
 42
1.0
 92
        8
 66
     8
 43
1.0
 76
     1
 77
     6
 78
     2
 67
     7
 79
     5
170
     0
171
     0
290
     0
174
     0
 93
       13
 44
0.0
173
     0
291
     0
 45
0.0
1001
ACAD
1000
AcDbSavedByObjectVersion
1070
     0
  0
VISUALSTYLE
  5
37
102
{ACAD_REACTORS
330
2A
102
}
102
{ACAD_XDICTIONARY
360
30B
102
}
330
2A
100
AcDbVisualStyle
  2
Thicken
 70
    13
 71
     2
 72
     2
 73
     0
 90
        0
 40
-0.6
 41
-30.0
 62
     5
 63
     7
 74
     1
 91
        4
 64
     7
 65
   257
 75
     1
175
     1
 42
1.0
 92
       12
 66
     7
 43
1.0
 76
     1
 77
     6
 78
     2
 67
     7
 79
     5
170
     0
171
     0
290
     0
174
     0
 93
        1
 44
0.0
173
     0
291
     1
 45
0.0
1001
ACAD
1000
AcDbSavedByObjectVersion
1070
     0
  0
DICTIONARYVAR
  5
2F1
102
{ACAD_REACTORS
330
2EE
102
}
330
2EE
100
DictionaryVariables
280
     0
  1
2
  0
DICTIONARYVAR
  5
2F2
102
{ACAD_REACTORS
330
2EE
102
}
330
2EE
100
DictionaryVariables
280
     0
  1
1
  0
DICTIONARY
  5
315
330
3D
100
AcDbDictionary
280
     1
281
     1
  3
ACAD_XREC_ROUNDTRIP
360
316
  0
DICTIONARY
  5
313
330
3C
100
AcDbDictionary
280
     1
281
     1
  3
ACAD_XREC_ROUNDTRIP
360
314
  0
DICTIONARY
  5
317
330
3E
100
AcDbDictionary
280
     1
281
     1
  3
ACAD_XREC_ROUNDTRIP
360
318
  0
DICTIONARY
  5
2FB
330
2F
100
AcDbDictionary
280
     1
281
     1
  3
ACAD_XREC_ROUNDTRIP
360
2FC
  0
DICTIONARY
  5
2FF
330
31
100
AcDbDictionary
280
     1
281
     1
  3
ACAD_XREC_ROUNDTRIP
360
300
  0
DICTIONARY
  5
2FD
330
30
100
AcDbDictionary
280
     1
281
     1
  3
ACAD_XREC_ROUNDTRIP
360
2FE
  0
DICTIONARY
  5
301
330
32
100
AcDbDictionary
280
     1
281
     1
  3
ACAD_XREC_ROUNDTRIP
360
302
  0
DICTIONARY
  5
309
330
36
100
AcDbDictionary
280
     1
281
     1
  3
ACAD_XREC_ROUNDTRIP
360
30A
  0
DICTIONARY
  5
311
330
3A
100
AcDbDictionary
280
     1
281
     1
  3
ACAD_XREC_ROUNDTRIP
360
312
  0
DICTIONARY
  5
305
330
34
100
AcDbDictionary
280
     1
281
     1
  3
ACAD_XREC_ROUNDTRIP
360
306
  0
DICTIONARY
  5
307
330
35
100
AcDbDictionary
280
     1
281
     1
  3
ACAD_XREC_ROUNDTRIP
360
308
  0
DICTIONARY
  5
30F
330
39
100
AcDbDictionary
280
     1
281
     1
  3
ACAD_XREC_ROUNDTRIP
360
310
  0
DICTIONARY
  5
2F3
330
2B
100
AcDbDictionary
280
     1
281
     1
  3
ACAD_XREC_ROUNDTRIP
360
2F4
  0
DICTIONARY
  5
2F5
330
2C
100
AcDbDictionary
280
     1
281
     1
  3
ACAD_XREC_ROUNDTRIP
360
2F6
  0
DICTIONARY
  5
2F7
330
2D
100
AcDbDictionary
280
     1
281
     1
  3
ACAD_XREC_ROUNDTRIP
360
2F8
  0
DICTIONARY
  5
2F9
330
2E
100
AcDbDictionary
280
     1
281
     1
  3
ACAD_XREC_ROUNDTRIP
360
2FA
  0
DICTIONARY
  5
30D
330
38
100
AcDbDictionary
280
     1
281
     1
  3
ACAD_XREC_ROUNDTRIP
360
30E
  0
DICTIONARY
  5
303
330
33
100
AcDbDictionary
280
     1
281
     1
  3
ACAD_XREC_ROUNDTRIP
360
304
  0
DICTIONARY
  5
30B
330
37
100
AcDbDictionary
280
     1
281
     1
  3
ACAD_XREC_ROUNDTRIP
360
30C
  0
XRECORD
  5
316
102
{ACAD_REACTORS
330
315
102
}
330
315
100
AcDbXrecord
280
     1
102
MATERIAL
148
0.0
149
0.0
149
0.0
 93
        0
 94
      127
282
     0
 72
     1
 77
     1
171
     1
175
     1
179
     1
273
     0
  0
XRECORD
  5
314
102
{ACAD_REACTORS
330
313
102
}
330
313
100
AcDbXrecord
280
     1
102
MATERIAL
148
0.0
149
0.0
149
0.0
 93
        0
 94
      127
282
     0
 72
     1
 77
     1
171
     1
175
     1
179
     1
273
     0
  0
XRECORD
  5
318
102
{ACAD_REACTORS
330
317
102
}
330
317
100
AcDbXrecord
280
     1
102
MATERIAL
148
0.0
149
0.0
149
0.0
 93
        0
 94
      127
282
     0
 72
     1
 77
     1
171
     1
175
     1
179
     1
273
     0
  0
XRECORD
  5
2FC
102
{ACAD_REACTORS
330
2FB
102
}
330
2FB
100
AcDbXrecord
280
     1
102
RTVSPropertyOp0
 70
     1
102
RTVSPropertyOp1
 70
     1
102
RTVSPropertyOp2
 70
     1
102
RTVSPropertyOp3
 70
     1
102
RTVSPropertyOp4
 70
     1
102
RTVSPropertyOp5
 70
     1
102
RTVSPropertyOp6
 70
     1
102
RTVSPropertyOp7
 70
     1
102
RTVSPropertyOp8
 70
     1
102
RTVSPropertyOp9
 70
     1
102
RTVSPropertyOp10
 70
     1
102
RTVSPropertyOp11
 70
     1
102
RTVSPropertyOp12
 70
     1
102
RTVSPropertyOp13
 70
     1
102
RTVSPropertyOp14
 70
     1
102
RTVSPropertyOp15
 70
     1
102
RTVSPropertyOp16
 70
     1
102
RTVSPropertyOp17
 70
     1
102
RTVSPropertyOp18
 70
     1
102
RTVSPropertyOp19
 70
     1
102
RTVSPropertyOp20
 70
     1
102
RTVSPropertyOp21
 70
     1
102
RTVSPropertyOp22
 70
     1
102
RTVSPropertyOp23
 70
     1
102
RTVSPropertyOp24
 70
     1
102
RTVSPropertyOp25
 70
     1
102
RTVSPropertyOp26
 70
     1
102
RTVSPropertyOp27
 70
     1
102
RTVSPropertyOp28
 70
     1
102
RTVSPropertyOp29
 70
     1
102
RTVSPropertyOp30
 70
     1
102
RTVSPropertyOp31
 70
     1
102
RTVSPropertyOp32
 70
     1
  0
XRECORD
  5
300
102
{ACAD_REACTORS
330
2FF
102
}
330
2FF
100
AcDbXrecord
280
     1
102
RTVSPropertyOp0
 70
     1
102
RTVSPropertyOp1
 70
     1
102
RTVSPropertyOp2
 70
     1
102
RTVSPropertyOp3
 70
     1
102
RTVSPropertyOp4
 70
     1
102
RTVSPropertyOp5
 70
     1
102
RTVSPropertyOp6
 70
     1
102
RTVSPropertyOp7
 70
     1
102
RTVSPropertyOp8
 70
     1
102
RTVSPropertyOp9
 70
     1
102
RTVSPropertyOp10
 70
     1
102
RTVSPropertyOp11
 70
     1
102
RTVSPropertyOp12
 70
     1
102
RTVSPropertyOp13
 70
     1
102
RTVSPropertyOp14
 70
     1
102
RTVSPropertyOp15
 70
     1
102
RTVSPropertyOp16
 70
     1
102
RTVSPropertyOp17
 70
     1
102
RTVSPropertyOp18
 70
     1
102
RTVSPropertyOp19
 70
     1
102
RTVSPropertyOp20
 70
     1
102
RTVSPropertyOp21
 70
     1
102
RTVSPropertyOp22
 70
     1
102
RTVSPropertyOp23
 70
     1
102
RTVSPropertyOp24
 70
     1
102
RTVSPropertyOp25
 70
     1
102
RTVSPropertyOp26
 70
     1
102
RTVSPropertyOp27
 70
     1
102
RTVSPropertyOp28
 70
     1
102
RTVSPropertyOp29
 70
     1
102
RTVSPropertyOp30
 70
     1
102
RTVSPropertyOp31
 70
     1
102
RTVSPropertyOp32
 70
     1
  0
XRECORD
  5
2FE
102
{ACAD_REACTORS
330
2FD
102
}
330
2FD
100
AcDbXrecord
280
     1
102
RTVSPropertyOp0
 70
     1
102
RTVSPropertyOp1
 70
     1
102
RTVSPropertyOp2
 70
     1
102
RTVSPropertyOp3
 70
     1
102
RTVSPropertyOp4
 70
     1
102
RTVSPropertyOp5
 70
     1
102
RTVSPropertyOp6
 70
     1
102
RTVSPropertyOp7
 70
     1
102
RTVSPropertyOp8
 70
     1
102
RTVSPropertyOp9
 70
     1
102
RTVSPropertyOp10
 70
     1
102
RTVSPropertyOp11
 70
     1
102
RTVSPropertyOp12
 70
     1
102
RTVSPropertyOp13
 70
     1
102
RTVSPropertyOp14
 70
     1
102
RTVSPropertyOp15
 70
     1
102
RTVSPropertyOp16
 70
     1
102
RTVSPropertyOp17
 70
     1
102
RTVSPropertyOp18
 70
     1
102
RTVSPropertyOp19
 70
     1
102
RTVSPropertyOp20
 70
     1
102
RTVSPropertyOp21
 70
     1
102
RTVSPropertyOp22
 70
     1
102
RTVSPropertyOp23
 70
     1
102
RTVSPropertyOp24
 70
     1
102
RTVSPropertyOp25
 70
     1
102
RTVSPropertyOp26
 70
     1
102
RTVSPropertyOp27
 70
     1
102
RTVSPropertyOp28
 70
     1
102
RTVSPropertyOp29
 70
     1
102
RTVSPropertyOp30
 70
     1
102
RTVSPropertyOp31
 70
     1
102
RTVSPropertyOp32
 70
     1
  0
XRECORD
  5
302
102
{ACAD_REACTORS
330
301
102
}
330
301
100
AcDbXrecord
280
     1
102
RTVSPropertyOp0
 70
     1
102
RTVSPropertyOp1
 70
     1
102
RTVSPropertyOp2
 70
     1
102
RTVSPropertyOp3
 70
     1
102
RTVSPropertyOp4
 70
     1
102
RTVSPropertyOp5
 70
     1
102
RTVSPropertyOp6
 70
     1
102
RTVSPropertyOp7
 70
     1
102
RTVSPropertyOp8
 70
     1
102
RTVSPropertyOp9
 70
     1
102
RTVSPropertyOp10
 70
     1
102
RTVSPropertyOp11
 70
     1
102
RTVSPropertyOp12
 70
     1
102
RTVSPropertyOp13
 70
     1
102
RTVSPropertyOp14
 70
     1
102
RTVSPropertyOp15
 70
     1
102
RTVSPropertyOp16
 70
     1
102
RTVSPropertyOp17
 70
     1
102
RTVSPropertyOp18
 70
     1
102
RTVSPropertyOp19
 70
     1
102
RTVSPropertyOp20
 70
     1
102
RTVSPropertyOp21
 70
     1
102
RTVSPropertyOp22
 70
     1
102
RTVSPropertyOp23
 70
     1
102
RTVSPropertyOp24
 70
     1
102
RTVSPropertyOp25
 70
     1
102
RTVSPropertyOp26
 70
     1
102
RTVSPropertyOp27
 70
     1
102
RTVSPropertyOp28
 70
     1
102
RTVSPropertyOp29
 70
     1
102
RTVSPropertyOp30
 70
     1
102
RTVSPropertyOp31
 70
     1
102
RTVSPropertyOp32
 70
     1
  0
XRECORD
  5
30A
102
{ACAD_REACTORS
330
309
102
}
330
309
100
AcDbXrecord
280
     1
102
RTVSPropertyOp0
 70
     1
102
RTVSPropertyOp1
 70
     1
102
RTVSPropertyOp2
 70
     1
102
RTVSPropertyOp3
 70
     1
102
RTVSPropertyOp4
 70
     1
102
RTVSPropertyOp5
 70
     1
102
RTVSPropertyOp6
 70
     1
102
RTVSPropertyOp7
 70
     1
102
RTVSPropertyOp8
 70
     1
102
RTVSPropertyOp9
 70
     1
102
RTVSPropertyOp10
 70
     1
102
RTVSPropertyOp11
 70
     1
102
RTVSPropertyOp12
 70
     1
102
RTVSPropertyOp13
 70
     1
102
RTVSPropertyOp14
 70
     1
102
RTVSPropertyOp15
 70
     1
102
RTVSPropertyOp16
 70
     1
102
RTVSPropertyOp17
 70
     1
102
RTVSPropertyOp18
 70
     1
102
RTVSPropertyOp19
 70
     1
102
RTVSPropertyOp20
 70
     1
102
RTVSPropertyOp21
 70
     1
102
RTVSPropertyOp22
 70
     1
102
RTVSPropertyOp23
 70
     1
102
RTVSPropertyOp24
 70
     1
102
RTVSPropertyOp25
 70
     1
102
RTVSPropertyOp26
 70
     1
102
RTVSPropertyOp27
 70
     1
102
RTVSPropertyOp28
 70
     1
102
RTVSPropertyOp29
 70
     1
102
RTVSPropertyOp30
 70
     1
102
RTVSPropertyOp31
 70
     1
102
RTVSPropertyOp32
 70
     1
  0
XRECORD
  5
312
102
{ACAD_REACTORS
330
311
102
}
330
311
100
AcDbXrecord
280
     1
102
RTVSPropertyOp0
 70
     1
102
RTVSPropertyOp1
 70
     1
102
RTVSPropertyOp2
 70
     1
102
RTVSPropertyOp3
 70
     1
102
RTVSPropertyOp4
 70
     1
102
RTVSPropertyOp5
 70
     1
102
RTVSPropertyOp6
 70
     1
102
RTVSPropertyOp7
 70
     1
102
RTVSPropertyOp8
 70
     1
102
RTVSPropertyOp9
 70
     1
102
RTVSPropertyOp10
 70
     1
102
RTVSPropertyOp11
 70
     1
102
RTVSPropertyOp12
 70
     1
102
RTVSPropertyOp13
 70
     1
102
RTVSPropertyOp14
 70
     1
102
RTVSPropertyOp15
 70
     1
102
RTVSPropertyOp16
 70
     1
102
RTVSPropertyOp17
 70
     1
102
RTVSPropertyOp18
 70
     1
102
RTVSPropertyOp19
 70
     1
102
RTVSPropertyOp20
 70
     1
102
RTVSPropertyOp21
 70
     1
102
RTVSPropertyOp22
 70
     1
102
RTVSPropertyOp23
 70
     1
102
RTVSPropertyOp24
 70
     1
102
RTVSPropertyOp25
 70
     1
102
RTVSPropertyOp26
 70
     1
102
RTVSPropertyOp27
 70
     1
102
RTVSPropertyOp28
 70
     1
102
RTVSPropertyOp29
 70
     1
102
RTVSPropertyOp30
 70
     1
102
RTVSPropertyOp31
 70
     1
102
RTVSPropertyOp32
 70
     1
  0
XRECORD
  5
306
102
{ACAD_REACTORS
330
305
102
}
330
305
100
AcDbXrecord
280
     1
102
RTVSPropertyOp0
 70
     1
102
RTVSPropertyOp1
 70
     1
102
RTVSPropertyOp2
 70
     1
102
RTVSPropertyOp3
 70
     1
102
RTVSPropertyOp4
 70
     1
102
RTVSPropertyOp5
 70
     1
102
RTVSPropertyOp6
 70
     1
102
RTVSPropertyOp7
 70
     1
102
RTVSPropertyOp8
 70
     1
102
RTVSPropertyOp9
 70
     1
102
RTVSPropertyOp10
 70
     1
102
RTVSPropertyOp11
 70
     1
102
RTVSPropertyOp12
 70
     1
102
RTVSPropertyOp13
 70
     1
102
RTVSPropertyOp14
 70
     1
102
RTVSPropertyOp15
 70
     1
102
RTVSPropertyOp16
 70
     1
102
RTVSPropertyOp17
 70
     1
102
RTVSPropertyOp18
 70
     1
102
RTVSPropertyOp19
 70
     1
102
RTVSPropertyOp20
 70
     1
102
RTVSPropertyOp21
 70
     1
102
RTVSPropertyOp22
 70
     1
102
RTVSPropertyOp23
 70
     1
102
RTVSPropertyOp24
 70
     1
102
RTVSPropertyOp25
 70
     1
102
RTVSPropertyOp26
 70
     1
102
RTVSPropertyOp27
 70
     1
102
RTVSPropertyOp28
 70
     1
102
RTVSPropertyOp29
 70
     1
102
RTVSPropertyOp30
 70
     1
102
RTVSPropertyOp31
 70
     1
102
RTVSPropertyOp32
 70
     1
  0
XRECORD
  5
308
102
{ACAD_REACTORS
330
307
102
}
330
307
100
AcDbXrecord
280
     1
102
RTVSPropertyOp0
 70
     1
102
RTVSPropertyOp1
 70
     1
102
RTVSPropertyOp2
 70
     1
102
RTVSPropertyOp3
 70
     1
102
RTVSPropertyOp4
 70
     1
102
RTVSPropertyOp5
 70
     1
102
RTVSPropertyOp6
 70
     1
102
RTVSPropertyOp7
 70
     1
102
RTVSPropertyOp8
 70
     1
102
RTVSPropertyOp9
 70
     1
102
RTVSPropertyOp10
 70
     1
102
RTVSPropertyOp11
 70
     1
102
RTVSPropertyOp12
 70
     1
102
RTVSPropertyOp13
 70
     1
102
RTVSPropertyOp14
 70
     1
102
RTVSPropertyOp15
 70
     1
102
RTVSPropertyOp16
 70
     1
102
RTVSPropertyOp17
 70
     1
102
RTVSPropertyOp18
 70
     1
102
RTVSPropertyOp19
 70
     1
102
RTVSPropertyOp20
 70
     1
102
RTVSPropertyOp21
 70
     1
102
RTVSPropertyOp22
 70
     1
102
RTVSPropertyOp23
 70
     1
102
RTVSPropertyOp24
 70
     1
102
RTVSPropertyOp25
 70
     1
102
RTVSPropertyOp26
 70
     1
102
RTVSPropertyOp27
 70
     1
102
RTVSPropertyOp28
 70
     1
102
RTVSPropertyOp29
 70
     1
102
RTVSPropertyOp30
 70
     1
102
RTVSPropertyOp31
 70
     1
102
RTVSPropertyOp32
 70
     1
  0
XRECORD
  5
310
102
{ACAD_REACTORS
330
30F
102
}
330
30F
100
AcDbXrecord
280
     1
102
RTVSPropertyOp0
 70
     1
102
RTVSPropertyOp1
 70
     1
102
RTVSPropertyOp2
 70
     1
102
RTVSPropertyOp3
 70
     1
102
RTVSPropertyOp4
 70
     1
102
RTVSPropertyOp5
 70
     1
102
RTVSPropertyOp6
 70
     1
102
RTVSPropertyOp7
 70
     1
102
RTVSPropertyOp8
 70
     1
102
RTVSPropertyOp9
 70
     1
102
RTVSPropertyOp10
 70
     1
102
RTVSPropertyOp11
 70
     1
102
RTVSPropertyOp12
 70
     1
102
RTVSPropertyOp13
 70
     1
102
RTVSPropertyOp14
 70
     1
102
RTVSPropertyOp15
 70
     1
102
RTVSPropertyOp16
 70
     1
102
RTVSPropertyOp17
 70
     1
102
RTVSPropertyOp18
 70
     1
102
RTVSPropertyOp19
 70
     1
102
RTVSPropertyOp20
 70
     1
102
RTVSPropertyOp21
 70
     1
102
RTVSPropertyOp22
 70
     1
102
RTVSPropertyOp23
 70
     1
102
RTVSPropertyOp24
 70
     1
102
RTVSPropertyOp25
 70
     1
102
RTVSPropertyOp26
 70
     1
102
RTVSPropertyOp27
 70
     1
102
RTVSPropertyOp28
 70
     1
102
RTVSPropertyOp29
 70
     1
102
RTVSPropertyOp30
 70
     1
102
RTVSPropertyOp31
 70
     1
102
RTVSPropertyOp32
 70
     1
  0
XRECORD
  5
2F4
102
{ACAD_REACTORS
330
2F3
102
}
330
2F3
100
AcDbXrecord
280
     1
102
RTVSPropertyOp0
 70
     1
102
RTVSPropertyOp1
 70
     1
102
RTVSPropertyOp2
 70
     1
102
RTVSPropertyOp3
 70
     1
102
RTVSPropertyOp4
 70
     1
102
RTVSPropertyOp5
 70
     1
102
RTVSPropertyOp6
 70
     1
102
RTVSPropertyOp7
 70
     1
102
RTVSPropertyOp8
 70
     1
102
RTVSPropertyOp9
 70
     1
102
RTVSPropertyOp10
 70
     1
102
RTVSPropertyOp11
 70
     1
102
RTVSPropertyOp12
 70
     1
102
RTVSPropertyOp13
 70
     1
102
RTVSPropertyOp14
 70
     1
102
RTVSPropertyOp15
 70
     1
102
RTVSPropertyOp16
 70
     1
102
RTVSPropertyOp17
 70
     1
102
RTVSPropertyOp18
 70
     1
102
RTVSPropertyOp19
 70
     1
102
RTVSPropertyOp20
 70
     1
102
RTVSPropertyOp21
 70
     1
102
RTVSPropertyOp22
 70
     1
102
RTVSPropertyOp23
 70
     1
102
RTVSPropertyOp24
 70
     1
102
RTVSPropertyOp25
 70
     1
102
RTVSPropertyOp26
 70
     1
102
RTVSPropertyOp27
 70
     1
102
RTVSPropertyOp28
 70
     1
102
RTVSPropertyOp29
 70
     1
102
RTVSPropertyOp30
 70
     1
102
RTVSPropertyOp31
 70
     1
102
RTVSPropertyOp32
 70
     1
  0
XRECORD
  5
2F6
102
{ACAD_REACTORS
330
2F5
102
}
330
2F5
100
AcDbXrecord
280
     1
102
RTVSPropertyOp0
 70
     1
102
RTVSPropertyOp1
 70
     1
102
RTVSPropertyOp2
 70
     1
102
RTVSPropertyOp3
 70
     1
102
RTVSPropertyOp4
 70
     1
102
RTVSPropertyOp5
 70
     1
102
RTVSPropertyOp6
 70
     1
102
RTVSPropertyOp7
 70
     1
102
RTVSPropertyOp8
 70
     1
102
RTVSPropertyOp9
 70
     1
102
RTVSPropertyOp10
 70
     1
102
RTVSPropertyOp11
 70
     1
102
RTVSPropertyOp12
 70
     1
102
RTVSPropertyOp13
 70
     1
102
RTVSPropertyOp14
 70
     1
102
RTVSPropertyOp15
 70
     1
102
RTVSPropertyOp16
 70
     1
102
RTVSPropertyOp17
 70
     1
102
RTVSPropertyOp18
 70
     1
102
RTVSPropertyOp19
 70
     1
102
RTVSPropertyOp20
 70
     1
102
RTVSPropertyOp21
 70
     1
102
RTVSPropertyOp22
 70
     1
102
RTVSPropertyOp23
 70
     1
102
RTVSPropertyOp24
 70
     1
102
RTVSPropertyOp25
 70
     1
102
RTVSPropertyOp26
 70
     1
102
RTVSPropertyOp27
 70
     1
102
RTVSPropertyOp28
 70
     1
102
RTVSPropertyOp29
 70
     1
102
RTVSPropertyOp30
 70
     1
102
RTVSPropertyOp31
 70
     1
102
RTVSPropertyOp32
 70
     1
  0
XRECORD
  5
2F8
102
{ACAD_REACTORS
330
2F7
102
}
330
2F7
100
AcDbXrecord
280
     1
102
RTVSPropertyOp0
 70
     1
102
RTVSPropertyOp1
 70
     1
102
RTVSPropertyOp2
 70
     1
102
RTVSPropertyOp3
 70
     1
102
RTVSPropertyOp4
 70
     1
102
RTVSPropertyOp5
 70
     1
102
RTVSPropertyOp6
 70
     1
102
RTVSPropertyOp7
 70
     1
102
RTVSPropertyOp8
 70
     1
102
RTVSPropertyOp9
 70
     1
102
RTVSPropertyOp10
 70
     1
102
RTVSPropertyOp11
 70
     1
102
RTVSPropertyOp12
 70
     1
102
RTVSPropertyOp13
 70
     1
102
RTVSPropertyOp14
 70
     1
102
RTVSPropertyOp15
 70
     1
102
RTVSPropertyOp16
 70
     1
102
RTVSPropertyOp17
 70
     1
102
RTVSPropertyOp18
 70
     1
102
RTVSPropertyOp19
 70
     1
102
RTVSPropertyOp20
 70
     1
102
RTVSPropertyOp21
 70
     1
102
RTVSPropertyOp22
 70
     1
102
RTVSPropertyOp23
 70
     1
102
RTVSPropertyOp24
 70
     1
102
RTVSPropertyOp25
 70
     1
102
RTVSPropertyOp26
 70
     1
102
RTVSPropertyOp27
 70
     1
102
RTVSPropertyOp28
 70
     1
102
RTVSPropertyOp29
 70
     1
102
RTVSPropertyOp30
 70
     1
102
RTVSPropertyOp31
 70
     1
102
RTVSPropertyOp32
 70
     1
  0
XRECORD
  5
2FA
102
{ACAD_REACTORS
330
2F9
102
}
330
2F9
100
AcDbXrecord
280
     1
102
RTVSPropertyOp0
 70
     1
102
RTVSPropertyOp1
 70
     1
102
RTVSPropertyOp2
 70
     1
102
RTVSPropertyOp3
 70
     1
102
RTVSPropertyOp4
 70
     1
102
RTVSPropertyOp5
 70
     1
102
RTVSPropertyOp6
 70
     1
102
RTVSPropertyOp7
 70
     1
102
RTVSPropertyOp8
 70
     1
102
RTVSPropertyOp9
 70
     1
102
RTVSPropertyOp10
 70
     1
102
RTVSPropertyOp11
 70
     1
102
RTVSPropertyOp12
 70
     1
102
RTVSPropertyOp13
 70
     1
102
RTVSPropertyOp14
 70
     1
102
RTVSPropertyOp15
 70
     1
102
RTVSPropertyOp16
 70
     1
102
RTVSPropertyOp17
 70
     1
102
RTVSPropertyOp18
 70
     1
102
RTVSPropertyOp19
 70
     1
102
RTVSPropertyOp20
 70
     1
102
RTVSPropertyOp21
 70
     1
102
RTVSPropertyOp22
 70
     1
102
RTVSPropertyOp23
 70
     1
102
RTVSPropertyOp24
 70
     1
102
RTVSPropertyOp25
 70
     1
102
RTVSPropertyOp26
 70
     1
102
RTVSPropertyOp27
 70
     1
102
RTVSPropertyOp28
 70
     1
102
RTVSPropertyOp29
 70
     1
102
RTVSPropertyOp30
 70
     1
102
RTVSPropertyOp31
 70
     1
102
RTVSPropertyOp32
 70
     1
  0
XRECORD
  5
30E
102
{ACAD_REACTORS
330
30D
102
}
330
30D
100
AcDbXrecord
280
     1
102
RTVSPropertyOp0
 70
     1
102
RTVSPropertyOp1
 70
     1
102
RTVSPropertyOp2
 70
     1
102
RTVSPropertyOp3
 70
     1
102
RTVSPropertyOp4
 70
     1
102
RTVSPropertyOp5
 70
     1
102
RTVSPropertyOp6
 70
     1
102
RTVSPropertyOp7
 70
     1
102
RTVSPropertyOp8
 70
     1
102
RTVSPropertyOp9
 70
     1
102
RTVSPropertyOp10
 70
     1
102
RTVSPropertyOp11
 70
     1
102
RTVSPropertyOp12
 70
     1
102
RTVSPropertyOp13
 70
     1
102
RTVSPropertyOp14
 70
     1
102
RTVSPropertyOp15
 70
     1
102
RTVSPropertyOp16
 70
     1
102
RTVSPropertyOp17
 70
     1
102
RTVSPropertyOp18
 70
     1
102
RTVSPropertyOp19
 70
     1
102
RTVSPropertyOp20
 70
     1
102
RTVSPropertyOp21
 70
     1
102
RTVSPropertyOp22
 70
     1
102
RTVSPropertyOp23
 70
     1
102
RTVSPropertyOp24
 70
     1
102
RTVSPropertyOp25
 70
     1
102
RTVSPropertyOp26
 70
     1
102
RTVSPropertyOp27
 70
     1
102
RTVSPropertyOp28
 70
     1
102
RTVSPropertyOp29
 70
     1
102
RTVSPropertyOp30
 70
     1
102
RTVSPropertyOp31
 70
     1
102
RTVSPropertyOp32
 70
     1
  0
XRECORD
  5
304
102
{ACAD_REACTORS
330
303
102
}
330
303
100
AcDbXrecord
280
     1
102
RTVSPropertyOp0
 70
     1
102
RTVSPropertyOp1
 70
     1
102
RTVSPropertyOp2
 70
     1
102
RTVSPropertyOp3
 70
     1
102
RTVSPropertyOp4
 70
     1
102
RTVSPropertyOp5
 70
     1
102
RTVSPropertyOp6
 70
     1
102
RTVSPropertyOp7
 70
     1
102
RTVSPropertyOp8
 70
     1
102
RTVSPropertyOp9
 70
     1
102
RTVSPropertyOp10
 70
     1
102
RTVSPropertyOp11
 70
     1
102
RTVSPropertyOp12
 70
     1
102
RTVSPropertyOp13
 70
     1
102
RTVSPropertyOp14
 70
     1
102
RTVSPropertyOp15
 70
     1
102
RTVSPropertyOp16
 70
     1
102
RTVSPropertyOp17
 70
     1
102
RTVSPropertyOp18
 70
     1
102
RTVSPropertyOp19
 70
     1
102
RTVSPropertyOp20
 70
     1
102
RTVSPropertyOp21
 70
     1
102
RTVSPropertyOp22
 70
     1
102
RTVSPropertyOp23
 70
     1
102
RTVSPropertyOp24
 70
     1
102
RTVSPropertyOp25
 70
     1
102
RTVSPropertyOp26
 70
     1
102
RTVSPropertyOp27
 70
     1
102
RTVSPropertyOp28
 70
     1
102
RTVSPropertyOp29
 70
     1
102
RTVSPropertyOp30
 70
     1
102
RTVSPropertyOp31
 70
     1
102
RTVSPropertyOp32
 70
     1
  0
XRECORD
  5
30C
102
{ACAD_REACTORS
330
30B
102
}
330
30B
100
AcDbXrecord
280
     1
102
RTVSPropertyOp0
 70
     1
102
RTVSPropertyOp1
 70
     1
102
RTVSPropertyOp2
 70
     1
102
RTVSPropertyOp3
 70
     1
102
RTVSPropertyOp4
 70
     1
102
RTVSPropertyOp5
 70
     1
102
RTVSPropertyOp6
 70
     1
102
RTVSPropertyOp7
 70
     1
102
RTVSPropertyOp8
 70
     1
102
RTVSPropertyOp9
 70
     1
102
RTVSPropertyOp10
 70
     1
102
RTVSPropertyOp11
 70
     1
102
RTVSPropertyOp12
 70
     1
102
RTVSPropertyOp13
 70
     1
102
RTVSPropertyOp14
 70
     1
102
RTVSPropertyOp15
 70
     1
102
RTVSPropertyOp16
 70
     1
102
RTVSPropertyOp17
 70
     1
102
RTVSPropertyOp18
 70
     1
102
RTVSPropertyOp19
 70
     1
102
RTVSPropertyOp20
 70
     1
102
RTVSPropertyOp21
 70
     1
102
RTVSPropertyOp22
 70
     1
102
RTVSPropertyOp23
 70
     1
102
RTVSPropertyOp24
 70
     1
102
RTVSPropertyOp25
 70
     1
102
RTVSPropertyOp26
 70
     1
102
RTVSPropertyOp27
 70
     1
102
RTVSPropertyOp28
 70
     1
102
RTVSPropertyOp29
 70
     1
102
RTVSPropertyOp30
 70
     1
102
RTVSPropertyOp31
 70
     1
102
RTVSPropertyOp32
 70
     1
  0
ENDSEC
  0
EOF
